Wrath of the Titans 2012 DvDRip XviD Ac3 Feel-Free

seeders: 0
leechers: 1
Added on Jun 10, 2012 by feel-free20.27K in Movies
Torrent verified. Downloaded 0 times.

Summary:
Perseus braves the treacherous underworld to rescue his father, Zeus, captured by his son, Ares, and brother Hades who unleash the ancient Titans upon the world.
Written by TH374.8K
report summary
Wrath of the Titans 2012 DvDRip XviD Ac3 Feel-Free (Size: 1.31 GB)
  LScW513z.jpeg 113.73 KB
  Torrent downloaded from extratorrent.com.txt 171 bytes
  vlcsnap-2012-06-10-09h48m42s142.png 379.73 KB
  vlcsnap-2012-06-10-09h48m56s21.png 132.9 KB
  vlcsnap-2012-06-10-09h49m55s105.png 363.28 KB
  vlcsnap-2012-06-10-09h52m56s128.png 276.87 KB
  vlcsnap-2012-06-10-09h53m34s235.png 339.29 KB
  Wrath.of.the.Titans.2012.DvDRip.XviD.Ac3.Feel-Free.avi 1.31 GB
  Wrath.of.the.Titans.2012.DvDRip.XviD.Ac3.Feel-Free.nfo 3.33 KB

Description

image
image


Genre:Action | Adventure | Fantasy
Language:English
IMDb:http://www.imdb.com/title/tt1646987/
Source:DVD9 Thanks!
Encoder:Pitic

Format : AVI
Format/Info : Audio Video Interleave
File size : 1.31 GiB
Duration : 1h 39mn
Overall bit rate : 1 884 Kbps

Video
ID : 0
Format : MPEG-4 Visual
Format profile : Advanced Simple@L5
Format settings, BVOP : 1
Format settings, QPel : No
Format settings, GMC : No warppoints
Format settings, Matrix : Default (H.263)
Codec ID : XVID
Codec ID/Hint : XviD
Duration : 1h 39mn
Bit rate : 1 495 Kbps
Width : 640 pixels
Height : 352 pixels
Display aspect ratio : 16:9
Frame rate : 23.976 fps
Color space : YUV
Chroma subsampling : 4:2:0
Bit depth : 8 bits
Scan type : Progressive
Compression mode : Lossy
Bits/(Pixel*Frame) : 0.277
Stream size : 1.04 GiB (79%)
Writing library : XviD 1.2.1 (UTC 2008-12-04)

Audio
ID : 1
Format : AC-3
Format/Info : Audio Coding 3
Mode extension : CM (complete main)
Format settings, Endianness : Big
Codec ID : 2000
Duration : 1h 38mn
Bit rate mode : Constant
Bit rate : 384 Kbps
Channel(s) : 6 channels
Channel positions : Front: L C R, Side: L R, LFE
Sampling rate : 48.0 KHz
Bit depth : 16 bits
Compression mode : Lossy
Stream size : 271 MiB (20%)
Alignment : Aligned on interleaves
Interleave, duration : 42 ms (1.01 video frame)
Interleave, preload duration : 512 ms


Plot:
Perseus braves the treacherous underworld to rescue his father, Zeus, captured by his son, Ares, and brother Hades who unleash the ancient Titans upon the world.

TRAILER:
[embed=youtube]http://www.youtube.com/watch?v=Xs7fzOrUopc&feature=player_embedded[/embed]

image
image
image
image
image

Greets:
CRYS,INSPiRAL,IMAGINE,LKRG,ADTRG,FXG,3Li,FLAWL3SS,TA,CrEwSaDe.iLLUSiON,EMBER,HOPE,GooN,BBnRG,NOGRP,ETRG,BHRG,iLLUMiNATi,MiSTERE.ViSiON,DTRG SAFCuk009,LU,TheFalcon007,MYSTiC,PrisM,Noir,WBZ,LAP,Rx,Kingdom,SAFCuk009+Fabreezy,HDLiTE,TWiZTED,ETRG.ELEKTRI4KA,MAGNAT,CM8
And to all the other p2p grps past and present

Make sure its a real Feel-Free release @ http://extratorrent.com
Thanks to all who promotes release Feel-Free !!!

Related Torrents

torrent name size files age seed leech

Sharing Widget


Download torrent
1.31 GB
seeders:0
leechers:1
Wrath of the Titans 2012 DvDRip XviD Ac3 Feel-Free

Trackers

tracker name Status checked seeders leechers downloads
udp://tracker.publicbt.com:80/announce
outdated 30 Sep 2014 - - -
udp://tracker.openbittorrent.com:80/announce
outdated 30 Sep 2014 - - -
http://pow7.com/announce
outdated 15 Sep 2012 - - -
udp://tracker.1337x.org:80/announce
outdated 15 Sep 2012 - - -
udp://tracker.istole.it:80/announce
outdated 15 Sep 2012 - - -
http://tracker.istole.it/announce
outdated 15 Sep 2012 - - -
http://exodus.desync.com:6969/announce
blocked 15 Sep 2012 - - -
http://tracker.publicbt.com/announce
deleted 11 Mar 2013 - - -
udp://fr33domtracker.h33t.com:3310/announce
deleted 15 Sep 2012 - - -
http://tracker.novalayer.org:6969/announce
pending 15 Sep 2012 0 0 0
µTorrent compatible trackers list

Locations

name
KickassTorrents
Torrent hash: E713FEB3D9A4424108B59C3ADFD37E1F5459E586

All Comments

audio
7/10
video
7/10
please, leave only comments related to that torrent
or sign-in
0
Wotrednuloot101 • 20 August 2012, 02:25
torrent downloaded
Show comment
audio: 8video: 8
good quality
horrible movie
0
anonymous • 15 August 2012, 07:07 Show comment
yup cinavia proection
0
RIFFY D790 • 05 July 2012, 09:15 Show comment
cinavia or not plz??????????????????????????biggrin
0
thlcv77 • 24 June 2012, 19:59
torrent downloaded
Show comment
couldn;t work it
0
ill111162 • 18 June 2012, 16:07
torrent downloaded
Show comment
audio: 10video: 10
thanks!
0
Un.Real1384 • 13 June 2012, 22:37
torrent downloaded
Show comment
audio: 10video: 10
good thanks
0
violetprime182 • 13 June 2012, 14:08 Show comment
audio: 5video: 5
average audio & video...
0
Lowweed287 • 12 June 2012, 05:45
torrent downloaded
Show comment
audio: 6video: 7
Nice movie but the copy is not. Better wait for another copy if you desire the 720p types. But thanks anyway. :)
Show More All

User Opinions

MitGuNNeR33.02K, Sylux6052, locolopes3272, Yuser211651, Un.Real1384, ill111162, darksaga472, osismabitt394, dr.raghava87, 0range59 ... And 20 more
violetprime182, ankurdass150, diabolyo147
Report a bug