White Collar S04E07 HDTV Xvid MrX

seeders: 0
leechers: 0
Added on Aug 29, 2012 in TV
Torrent verified. Downloaded 0 times.

  • View all White Collar episodes
  • Episode title: Compromising Positions
  • Episode: S04E07
  • Air date: 28 August 2012
  • IMDb link: 1358522
  • Original run: 23 October 2009 — 18 December 2014
  • Summary:
    A white collar criminal agrees to help the FBI catch other white collar criminals using his expertise as an art and securities thief, counterfeiter, and conman.
    Written by TH374.79K
    report summary
White Collar S04E07 HDTV Xvid MrX (Size: 351.55 MB)
  White.Collar.S04E07.HDTV.Xvid-MrX.avi 350.48 MB
  White.Collar.S04E07.HDTV.Xvid-MrX.png 1.07 MB
  White.Collar.S04E07.HDTV.Xvid-MrX.nfo 2.86 KB

Description

White.Collar.S04E07.HDTV.Xvid-MrX

http://whitecollar.usanetwork.com/


General
Complete name : White.Collar.S04E07.HDTV.Xvid-MrX.avi
Format : AVI
Format/Info : Audio Video Interleave
File size : 350 MiB
Duration : 42mn 55s
Overall bit rate mode : Variable
Overall bit rate : 1 141 Kbps

Video
ID : 0
Format : MPEG-4 Visual
Format profile : Advanced Simple@L5
Format settings, BVOP : 1
Format settings, QPel : No
Format settings, GMC : No warppoints
Format settings, Matrix : Default (H.263)
Muxing mode : Packed bitstream
Codec ID : XVID
Codec ID/Hint : XviD
Duration : 42mn 55s
Bit rate : 966 Kbps
Width : 640 pixels
Height : 352 pixels
Display aspect ratio : 16:9
Frame rate : 23.976 fps
Color space : YUV
Chroma subsampling : 4:2:0
Bit depth : 8 bits
Scan type : Progressive
Compression mode : Lossy
Bits/(Pixel*Frame) : 0.179
Stream size : 297 MiB (85%)
Writing library : XviD 1.2.1 (UTC 2008-12-04)

Audio
ID : 1
Format : MPEG Audio
Format version : Version 1
Format profile : Layer 3
Codec ID : 55
Codec ID/Hint : MP3
Duration : 42mn 55s
Bit rate mode : Variable
Bit rate : 162 Kbps
Minimum bit rate : 128 Kbps
Channel(s) : 2 channels
Sampling rate : 48.0 KHz
Compression mode : Lossy
Stream size : 49.9 MiB (14%)
Alignment : Aligned on interleaves
Interleave, duration : 24 ms (0.58 video frame)
Interleave, preload duration : 212 ms
Title : White.Collar.S04E07
Writing library : LAME3.99r
Encoding settings : -m s -V 4 -q 0 -lowpass 17.5 --vbr-mt -b 128

Related Torrents

torrent name size files age seed leech

Sharing Widget


Download torrent
351.55 MB
seeders:0
leechers:0
White Collar S04E07 HDTV Xvid MrX

Trackers

tracker name Status checked seeders leechers downloads
udp://tracker.openbittorrent.com:80/announce
outdated 30 Oct 2014 - - -
udp://tracker.publicbt.com:80/announce
outdated 30 Oct 2014 - - -
udp://tracker.istole.it:80/announce
outdated 30 Oct 2014 - - -
udp://fr33domtracker.h33t.com:3310/announce
deleted 20 Feb 2013 - - -
µTorrent compatible trackers list

Locations

name
ThePirateBay
Torrent hash: 62058BE6F47A2254BAB2C60F6ADD7C269E807C91

All Comments

audio
0/10
video
0/10
please, leave only comments related to that torrent
or sign-in

User Opinions

Unknowntoall5896, djcvrle5290, Gooner794215, StSir3931, rjfacando12198
Report a bug