What To Expect When Your Expecting 2012 CAM READNFO XviD-XTREME

seeders: 26
leechers: 0
Added on Jun 12, 2012 in Movies
Torrent verified. Downloaded 484 times.

What To Expect When Your Expecting 2012 CAM READNFO XviD-XTREME (Size: 1.37 GB)
  Readme.txt 54 bytes
  What.To.Expect.When.Your.Expecting.2012.CAM.READNFO.XviD-XTREME.avi 1.37 GB

Description

http://img525.imageshack.us/.../reexpecting2012official.jpg


Video
ID : 0
Format : MPEG-4 Visual
Format profile : Advanced Simple@L5
Format settings, BVOP: 2
Format settings, QPel: No
Format settings, GMC : No warppoints
Format settings, Matrix: Default (H.263)
Muxing mode: Packed bitstream
Codec ID : XVID
Codec ID/Hint: XviD
Duration : 1h 39mn
Bit rate : 1 838 Kbps
Width: 720 pixels
Height : 368 pixels
Display aspect ratio : 1.957
Frame rate : 30.303 fps
Color space: YUV
Chroma subsampling : 4:2:0
Bit depth: 8 bits
Scan type: Progressive
Compression mode : Lossy
Bits/(Pixel*Frame) : 0.229
Stream size: 1.27 GiB (93%)
Writing library: XviD 1.2.1 (UTC 2008-12-04)

Audio
ID : 1
Format : MPEG Audio
Format version : Version 1
Format profile : Layer 3
Codec ID : 55
Codec ID/Hint: MP3
Duration : 1h 39mn
Bit rate mode: Constant
Bit rate : 128 Kbps
Channel(s) : 1 channel
Sampling rate: 48.0 KHz
Compression mode : Lossy
Stream size: 90.9 MiB (6%)
Alignment: Split accross interleaves
Interleave, duration : 33 ms (1.00 video frame)
Writing library: LAME3.98r
Encoding settings: -m m -V 4 -q 3 -lowpass 20.5 -b 128


screens:
http://imgh.us/what_2.jpg

Sharing Widget


Download torrent
1.37 GB
seeders:26
leechers:0
What To Expect When Your Expecting 2012 CAM READNFO XviD-XTREME

Trackers

tracker name Status checked seeders leechers downloads
udp://tracker.istole.it:80/announce
outdated 11 Feb 2013 - - -
udp://tracker.1337x.org:80/announce
outdated 11 Feb 2013 - - -
http://tracker.istole.it/announce
outdated 11 Feb 2013 - - -
udp://tracker.publicbt.com:80/announce
outdated 11 Feb 2013 - - -
udp://tracker.openbittorrent.com:80/announce
outdated 11 Feb 2013 - - -
http://exodus.desync.com:6969/announce
blocked 11 Feb 2013 - - -
http://tracker.publicbt.com/announce
deleted 11 Mar 2013 - - -
udp://fr33domtracker.h33t.com:3310/announce
deleted 11 Feb 2013 - - -
ĀµTorrent compatible trackers list

Locations

name
ThePirateBay
Torrent hash: 0E693D0840DE6F124B59555C8DED7F024B53575A

All Comments

audio
1/10
video
1/10
please, leave only comments related to that torrent
or sign-in
0
anonymous • 24 August 2012, 23:11 Show comment
audio: 1video: 1
0
anonymous • 22 August 2012, 18:12 Show comment
Can someone spell it right? :/ People can't find it because you can't spell 'you're' >.>
0
beeperboyusa136 • 06 August 2012, 02:00
torrent downloaded
Show comment
thanks
0
anonymous • 25 July 2012, 08:59 Show comment
can someone put a better copy up???
0
TARMAN0753 • 23 July 2012, 20:06 Show comment
audio: 1video: 1
thanks for trying tho
0
chalkie191327 • 16 July 2012, 06:16
torrent downloaded
Show comment
good,thx u
0
longdavey5 • 01 July 2012, 19:57
torrent downloaded
Show comment
audio: 3video: 2
0
sienuc625 • 22 June 2012, 18:40
torrent downloaded
Show comment
audio: 1video: 1
is bad,very bad :(
0
anonymous • 19 June 2012, 12:19 Show comment
audio: 1video: 1
DO NOT WASTE YOUR BANDWIDTH!! Highly unwatchable - video is very blurry like watching through a frosted obscure bathroom window. Sound is like TV is in a gold fish bowl.
Show More All

User Opinions

Report a bug