Veergati (1995) DvD - 2CD - Rip - - Yoge786[dvdrip]

seeders: 0
leechers: 0
Added on Mar 20, 2011 by ahashare16.12K in Movies
Downloaded 0 times.

Summary:
Orphaned and abandoned at birth, Ajay has a very cynical view of the world, and is unable to secure employment. He does find some work at a hospital, but is angered at the manner in which the doctors and staff treat corpses, often releasing them to the next of kin for a price, and his protests get him fired. He gambles in order to get money so that his friend, Sulokh, can get married to wealthy Pooja. His guardian, Havaldar, finds out about his gambling bout, which has angered local gangsters, beats him severely, and asks him to leave. Homeless, poor, hungry, and with angry goons on his tail, Ajay has virtually nowhere to run and will soon realize that his time is running out.
Written by sallu-queen471
report summary
Veergati (1995) DvD - 2CD - Rip - - Yoge786[dvdrip] (Size: 1.37 GB)
  Veergati (1995) DvD - 2CD - Rip - Xvid - Yoge786[www.ahashare.com].avi 1.37 GB
  Torrent downloaded from AhaShare.com.txt 59 bytes

Description

Veergati (1995) DvD - 2CD - Rip - Xvid - Yoge786

Ripper : Yoge786:P
Complete name : Veergati (1995)
Format : AVI
Format/Info : Audio Video Interleave
File size : 1.37 GiB
Duration : 2h 45mn
Overall bit rate : 1 179 Kbps
Writing application : VirtualDubMod 1.5.10.3 |

Video
ID : 0
Format : MPEG-4 Visual
Format profile : Advanced Simple@L5
Format settings, BVOP : Yes
Format settings, QPel : No
Format settings, GMC : No warppoints
Format settings, Matrix : Default (MPEG)
Codec ID : XVID
Codec ID/Hint : XviD
Duration : 2h 45mn
Bit rate : 976 Kbps
Width : 720 pixels
Height : 384 pixels
Display aspect ratio : 1.875
Frame rate : 29.970 fps
Color space : YUV
Chroma subsampling : 4:2:0
Bit depth : 8 bits
Scan type : Interlaced
Scan order : Bottom Field First
Compression mode : Lossy
Bits/(Pixel*Frame) : 0.118
Stream size : 1.13 GiB (83%)
Writing library : XviD 1.2.1 (UTC 2008-12-04)

Audio
ID : 1
Format : AC-3
Format/Info : Audio Coding 3
Mode extension : CM (complete main)
Codec ID : 2000
Duration : 2h 45mn
Bit rate mode : Constant
Bit rate : 192 Kbps
Channel(s) : 2 channels
Channel positions : Front: L R
Sampling rate : 48.0 KHz
Bit depth : 16 bits
Compression mode : Lossy
Stream size : 228 MiB (16%)
Alignment : Split accross interleaves
Interleave, duration : 33 ms (1.00 video frame)
Interleave, preload duration : 500 ms


image

Don't Forget to Hit Thanks & Comment:yes::wave:

Please Seed After Downloading :wave:


image
image
image
image
image
image
image
image
image
image



image


Don't Forget to Hit Thanks & Comment:yes::wave:

Related Torrents

torrent name size files age seed leech

Sharing Widget


Download torrent
1.37 GB
seeders:0
leechers:0
Veergati (1995) DvD - 2CD - Rip - - Yoge786[dvdrip]

Trackers

tracker name Status checked seeders leechers downloads
http://tracker.torrentbay.to:6969/announce
outdated 23 Nov 2012 - - -
http://tracker.ccc.de/announce
outdated 23 Aug 2012 - - -
http://10.rarbg.com/announce
private 07 May 2012 - - -
http://pow7.com/announce
outdated 07 May 2012 - - -
http://tracker.csze.com/announce
outdated 26 Apr 2012 - - -
http://tracker.istole.it/announce
outdated 26 Oct 2011 - - -
http://tracker2.istole.it:6969/announce
outdated 26 Oct 2011 - - -
http://umunu.com:1984/announce
outdated 04 Aug 2011 - - -
http://genesis.1337x.org:1337/announce
outdated 13 Jul 2011 - - -
http://exodus.1337x.org/announce
outdated 13 Jul 2011 - - -
http://nemesis.1337x.org/announce
outdated 08 Jul 2011 - - -
http://nyaatorrents.info:3277/announce
outdated 20 Mar 2011 - - -
http://announce.opensharing.ru:2710/announce
outdated 20 Mar 2011 - - -
http://bt1.the9.com:6969/announce
outdated 20 Mar 2011 - - -
http://tracker.ex.ua/announce
outdated 20 Mar 2011 - - -
udp://tracker.openbittorrent.com:80/announce
outdated 20 Mar 2011 - - -
udp://tracker.publicbt.com:80/announce
outdated 20 Mar 2011 - - -
udp://tracker.istole.it:80/announce
outdated 20 Mar 2011 - - -
http://11.rarbg.com/announce
private 20 Mar 2011 - - -
http://inferno.demonoid.me:3416/announce
outdated 20 Mar 2011 - - -
http://tracker.openbittorrent.com/announce
outdated 20 Mar 2011 - - -
http://tracker.ilibr.org/announce
blocked 02 Aug 2011 - - -
http://fr33dom.h33t.com:3310/announce
deleted 19 May 2013 - - -
http://tracker.publicbt.com/announce
deleted 18 Aug 2011 - - -
http://genesis.1337x.org/announce
error 20 Mar 2011 - - -
http://papaja.v2v.cc:6970/announce
error 20 Mar 2011 - - -
http://tracker.bitreactor.to:2710/announce
private 20 Mar 2011 - - -
ĀµTorrent compatible trackers list

Locations

name
KickassTorrents
Torrent hash: 614b058bab29862ddff1a9d43a0b39dc97a4082e

All Comments

audio
0/10
video
0/10
please, leave only comments related to that torrent
or sign-in

User Opinions

Report a bug