Two Moon Junction (1988).avi

seeders: 0
leechers: 0
Added on Nov 10, 2010 in Movies
Torrent verified. Downloaded 0 times.

Summary:
A young Southern débutante temporarily abandons her posh lifestyle and upcoming, semi-arranged marriage to have a lustful and erotic fling with a rugged drifter who works at a local carnival.
Written by phoenix66118.94K
report summary
Available in versions: 1080p720pBDRipHDRiP
Two Moon Junction (1988).avi (Size: 1.55 GB)
  Two Moon Junction (1988).avi 1.55 GB

Description

Two Moon Junction (1988) DVD rip


http://www.imdb.com/title/tt0096324/



General
Complete name : Two Moon Junction (1988).avi
Format : AVI
Format/Info : Audio Video Interleave
File size : 1.55 GiB
Duration : 1h 40mn
Overall bit rate : 2 199 Kbps
Movie name : two moon junction.Title2.DVDRip
Writing application : Lavf52.33.0
Original source form/Name : two moon junction dvd

Video
ID : 0
Format : MPEG-4 Visual
Format profile : AdvancedSimple@L5
Format settings, BVOP : Yes
Format settings, QPel : No
Format settings, GMC : No warppoints
Format settings, Matrix : Default (H.263)
Muxing mode : Packed bitstream
Codec ID : XVID
Codec ID/Hint : XviD
Duration : 1h 40mn
Bit rate : 2 001 Kbps
Width : 720 pixels
Height : 388 pixels
Display aspect ratio : 1.856
Frame rate : 25.000 fps
Resolution : 24 bits
Colorimetry : 4:2:0
Scan type : Progressive
Bits/(Pixel*Frame) : 0.287
Stream size : 1.40 GiB (91%)
Writing library : XviD 1.2.1 (UTC 2008-12-04)

Audio
ID : 1
Format : AC-3
Format/Info : Audio Coding 3
Codec ID : 2000
Duration : 1h 40mn
Bit rate mode : Constant
Bit rate : 192 Kbps
Channel(s) : 2 channels
Channel positions : L R
Sampling rate : 48.0 KHz
Stream size : 138 MiB (9%)
Alignment : Aligned on interleaves
Interleave, duration : 32 ms (0.80 video frame)
Interleave, preload duration

Related Torrents

torrent name size files age seed leech

Sharing Widget


Download torrent
1.55 GB
seeders:0
leechers:0
Two Moon Junction (1988).avi

Trackers

tracker name Status checked seeders leechers downloads
udp://tracker.openbittorrent.com:80/announce
outdated 16 Sep 2014 - - -
udp://tracker.publicbt.com:80/announce
outdated 16 Sep 2014 - - -
udp://tracker.istole.it:80/announce
outdated 16 Sep 2014 - - -
µTorrent compatible trackers list

Locations

name
ThePirateBay
Limetorrents
Torrent hash: 35e563ba27da1929b9935ef95b0653967dcc2e08

All Comments

audio
8/10
video
8/10
please, leave only comments related to that torrent
or sign-in
0
mrrammit4291 • 09 February 2014, 18:33
torrent downloaded
Show comment
did not DL, thanks anyways
0
SONIA_KHAN10.48K • 31 January 2014, 18:46
torrent downloaded
Show comment
audio: 9video: 9
NICE & FINE !
0
MohamedAction1346 • 24 January 2014, 17:35 Show comment
Thanks Oh God
0
huhuha!2684 • 17 September 2013, 12:42
torrent downloaded
Show comment
audio: 8video: 8
0
edwinalucy2594 • 07 August 2013, 15:47
torrent downloaded
Show comment
audio: 8video: 7
Tks...uploader and seeds....excellent movie
0
kick2ass186 • 09 June 2013, 07:24
torrent downloaded
Show comment
audio: 9video: 9
Thanks! Great Stuff!
0
BFTM30.05K • 28 March 2013, 03:16
torrent downloaded
Show comment
audio: 8video: 8
0
butchukoy1006429 • 16 March 2013, 02:27
torrent downloaded
Show comment
thanks
0
slickric1532 • 31 October 2012, 19:22
torrent downloaded
Show comment
audio: 9video: 8
hot erotic movie , kinda reminds me of 9 1/2 weeks without all the pub , still a great flick
Show More All

User Opinions

TheMagneto5485, DeepK3271, kinty22122, arman_arian1627, TanjilOvi1051, GildroY666, dsrtmntgirl512, c30hinmay181, lafferlaffer152, rkatiyar148 ... And 52 more
paragpan1483, Lina6240550, auj_007107, KING_KHAN_1106
Report a bug