The Twilight Saga Breaking Dawn Part 1 2011 TS NEW FULL LINE XViD - INSPiRAL

seeders: 1
leechers: 0
Added on Dec 6, 2011 in Movies
Torrent verified. Downloaded 10 times.

Summary:
The Quileutes close in on expecting parents Edward and Bella, whose unborn child poses a threat to the Wolf Pack and the towns people of Forks.
Written by ROBBREDD6810.97K
report summary
The Twilight Saga Breaking Dawn Part 1 2011 TS NEW FULL LINE XViD - INSPiRAL (Size: 1.4 GB)
  The Twilight Saga Breaking Dawn Part 1 2011 TS NEW FULL LINE XViD - INSPiRAL.avi 1.38 GB
  SAMPLE - INSPiRAL.avi 18.28 MB
  SAMPLE - INSPiRAL.sfv 9.26 KB
  The Twilight Saga Breaking Dawn Part 1 2011 TS NEW FULL LINE XViD - INSPiRAL.nfo 2.99 KB

Description


TITLE:

The Twilight Saga Breaking Dawn Part 1 2011 TS NEW FULL LINE XViD - INSPiRAL

IMDB:

www.imdb.com/title/tt1324999/


SOURCES:

VIDEO - TNZ 720p
AUDIO - RiPLEGENDZ
SUBS - OWN

STATS:

Video
ID : 0
Format : MPEG-4 Visual
Format profile : Advanced Simple@L5
Format settings, BVOP : 2
Format settings, QPel : No
Format settings, GMC : No warppoints
Format settings, Matrix : Default (H.263)
Muxing mode : Packed bitstream
Codec ID : XVID
Codec ID/Hint : XviD
Duration : 1h 47mn
Bit rate : 1 713 Kbps
Width : 720 pixels
Height : 304 pixels
Display aspect ratio : 2.35:1
Frame rate : 25.000 fps
Color space : YUV
Chroma subsampling : 4:2:0
Bit depth : 8 bits
Scan type : Progressive
Compression mode : Lossy
Bits/(Pixel*Frame) : 0.313
Stream size : 1.28 GiB (93%)
Writing library : XviD 64

Audio
ID : 1
Format : MPEG Audio
Format version : Version 1
Format profile : Layer 3
Codec ID : 55
Codec ID/Hint : MP3
Duration : 1h 47mn
Bit rate mode : Constant
Bit rate : 128 Kbps
Channel(s) : 2 channels
Sampling rate : 44.1 KHz
Compression mode : Lossy
Stream size : 98.0 MiB (7%)
Alignment : Split accross interleaves
Interleave, duration : 40 ms (1.00 video frame)
Interleave, preload duration : 500 ms


NOTES:

Our first release and boy what a nice way too start .
We used the TNZ 720p avi file and gave it some TLC,then hardcoded some subs we made for
the non english parts.
Audio we had to sync,filter and mux to our rip .....now enjoy a release with FULL line audio.


SCREENS:








Related Torrents

torrent name size files age seed leech

Sharing Widget


Download torrent
1.4 GB
seeders:1
leechers:0
The Twilight Saga Breaking Dawn Part 1 2011 TS NEW FULL LINE XViD - INSPiRAL

Trackers

tracker name Status checked seeders leechers downloads
http://tracker.torrentbay.to:6969/announce
outdated 02 Dec 2012 - - -
http://10.rarbg.com/announce
private 09 May 2012 - - -
http://pow7.com/announce
outdated 09 May 2012 - - -
http://tracker.openbittorrent.com/announce
outdated 06 Dec 2011 - - -
udp://tracker.publicbt.com:80/announce
outdated 06 Dec 2011 - - -
udp://tracker.1337x.org:80/announce
outdated 06 Dec 2011 - - -
udp://tracker.openbittorrent.com:80/announce
outdated 06 Dec 2011 - - -
http://exodus.desync.com:6969/announce
blocked 27 Aug 2012 - - -
http://tracker.publicbt.com/announce
deleted 11 Mar 2013 - - -
http://9.rarbg.com:2710/announce
private 06 Dec 2011 - - -
http://tracker.novalayer.org:6969/announce
pending 06 Dec 2011 1 25 0
ĀµTorrent compatible trackers list

Locations

name
ExtraTorrent
Torrent hash: 05374a1a6a444de21c3450698aac186be3e900d4

All Comments

audio
0/10
video
0/10
please, leave only comments related to that torrent
or sign-in
0
anonymous • 07 December 2011, 18:53 Show comment
http://storageget.com/leaked-part-two
0
anonymous • 07 December 2011, 17:40 Show comment
screens pls.......

User Opinions

Report a bug