The Three Stooges 2012 BRRip XviD AC3 - ADTRG

seeders: 0
leechers: 0
Added on Jul 6, 2012 by extremerules20.26K in Movies
Torrent verified by LRS23.53K, 2 years and 9 months ago. Downloaded 0 times.

Summary:
While trying to save their childhood orphanage, Moe, Larry, and Curly inadvertently stumble into a murder plot and wind up starring in a reality TV show.
Written by Hawzerstar26K
report summary
Available in versions: 1080p720pBDRipHDRiPDVDDVDRipTeleSync
The Three Stooges 2012 BRRip XviD AC3 - ADTRG (Size: 1.4 GB)
  Readme.txt 56 bytes
  Torrent downloaded from Demonoid.me.txt 46 bytes
  Torrent downloaded from AhaShare.com.txt 58 bytes
  The Three Stooges 2012 BRRip XviD AC3 - ADTRG.avi 1.39 GB
  sample.avi 18.91 MB

Description

image

IMDB: http://www.imdb.com/title/tt0383010/

Plot:
While trying to save their childhood orphanage, Moe, Larry, and Curly
inadvertently stumble into a murder plot and wind up starring in a reality
TV show.

image

Format : AVI
Format/Info : Audio Video Interleave
File size : 1.39 GiB
Duration : 1h 32mn
Overall bit rate : 2 155 Kbps
Writing application : VirtualDubMod 1.5.10.2 (build 2540/release)
Writing library : VirtualDubMod build 2540/release

Video
ID : 0
Format : MPEG-4 Visual
Format profile : Advanced Simple@L5
Format settings, BVOP : 2
Format settings, QPel : No
Format settings, GMC : No warppoints
Format settings, Matrix : Default (H.263)
Codec ID : XVID
Codec ID/Hint : XviD
Duration : 1h 32mn
Bit rate : 1 697 Kbps
Width : 720 pixels
Height : 384 pixels
Display aspect ratio : 1.875
Frame rate : 23.976 fps
Color space : YUV
Chroma subsampling : 4:2:0
Bit depth : 8 bits
Scan type : Progressive
Compression mode : Lossy
Bits/(Pixel*Frame) : 0.256
Stream size : 1.09 GiB (79%)
Writing library : XviD 1.2.1 (UTC 2008-12-04)

Audio
ID : 1
Format : AC-3
Format/Info : Audio Coding 3
Mode extension : CM (complete main)
Codec ID : 2000
Duration : 1h 32mn
Bit rate mode : Constant
Bit rate : 448 Kbps
Channel(s) : 6 channels
Channel positions : Front: L C R, Side: L R, LFE
Sampling rate : 48.0 KHz
Bit depth : 16 bits
Compression mode : Lossy
Stream size : 295 MiB (21%)
Alignment : Split accross interleaves
Interleave, duration : 42 ms (1.00 video frame)
Interleave, preload duration : 500 ms

image

image
image
image
image
image
image

Related Torrents

torrent name size files age seed leech

Sharing Widget


Download torrent
1.4 GB
seeders:0
leechers:0
The Three Stooges 2012 BRRip XviD AC3 - ADTRG

Trackers

tracker name Status checked seeders leechers downloads
udp://tracker.openbittorrent.com:80/announce
outdated 06 Apr 2014 - - -
udp://tracker.istole.it:80/announce
outdated 06 Apr 2014 - - -
udp://tracker.publicbt.com:80/announce
outdated 06 Apr 2014 - - -
udp://tracker.1337x.org:80/announce
outdated 06 Apr 2014 - - -
http://exodus.desync.com:6969/announce
blocked 06 Apr 2014 - - -
http://fr33dom.h33t.com:3310/announce
deleted 06 Apr 2014 - - -
udp://fr33domtracker.h33t.com:3310/announce
deleted 06 Apr 2014 - - -
µTorrent compatible trackers list

Locations

name
KickassTorrents
Torrent hash: 2A9A9198489DE435E750F639504B7CC4869506D0

All Comments

audio
8/10
video
8/10
please, leave only comments related to that torrent
or sign-in
0
Haunta263 • 07 December 2013, 09:22
torrent downloaded
Show comment
audio: 9video: 9
Great quality trusted download :D
0
AicAcm1806 • 04 June 2013, 22:42 Show comment
audio: 8video: 7
Ok, watchable
0
djmaseve6 • 01 May 2013, 20:29 Show comment
Download was good,
better than the movie for sure!
the series were better!
oh well, a one time thing, for the classics!
0
Dataktheugly4821 • 22 January 2013, 06:25 Show comment
audio: 10video: 10
Good quality
0
anonymous • 17 October 2012, 21:00 Show comment
What resolution???
0
MegumiTenshi204 • 23 July 2012, 18:01
torrent downloaded
Show comment
You guys tried it on ps3 yet?
0
MegumiTenshi204 • 23 July 2012, 23:00
torrent downloaded
Show comment
Nevermind... The video works fine on the PS3.

0
Attiq1808 • 14 July 2012, 11:33
torrent downloaded
Show comment
audio: 10video: 10
nice comedy film :P
0
bladereap3r5188 • 10 July 2012, 22:40
torrent downloaded
Show comment
audio: 8video: 8
gr8 feeds...my tnx.
-1
Nick_Iscovitz781 • 07 July 2012, 03:25
torrent downloaded
Show comment
audio: 6video: 8
It's a little quiet, if you ask me.
Show More All

User Opinions

Mantesh215.48K, PhriedPhish.65.9K, Dataktheugly4821, Attiq1808, Nick_Iscovitz781, Darkangel231355, MegumiTenshi204, alinalex1988141, lostangel78125, coczko99 ... And 28 more
Report a bug