The.Muppets.2011.DvDRip.XviD Feel-Free

seeders: 0
leechers: 0
Added on Feb 27, 2012 by feel-free20.26K in Movies
Torrent verified. Downloaded 0 times.

Summary:
The Muppets is a 2011 American musical comedy film, and the first Muppets theatrical release in twelve years.
Written by P4iN8944
report summary
Available in versions: 720pHDRiPDVDRipTeleSync
The.Muppets.2011.DvDRip.XviD Feel-Free (Size: 1.22 GB)
  coverepz.jpg 64.05 KB
  The.Muppets.2011.DvDRip.XviD Feel-Free.avi 1.21 GB
  The.Muppets.2011.DvDRip.XviD Feel-Free.nfo 3.28 KB
  Torrent downloaded from extratorrent.com.txt 171 bytes
  vlcsnap-2012-02-27-17h50m40s160.png 373.31 KB
  vlcsnap-2012-02-27-17h50m58s72.png 283.7 KB
  vlcsnap-2012-02-27-17h51m53s107.png 445.63 KB
  vlcsnap-2012-02-27-17h54m13s243.png 321.17 KB
  vlcsnap-2012-02-27-17h54m57s143.png 436.36 KB

Description

image


Genre:Comedy | Drama | Family
Language:English
IMDb:http://www.imdb.com/title/tt1204342/
Source:INSPiRAL DVD Thanks!
Encoder:Tony

Format : AVI
Format/Info : Audio Video Interleave
File size : 1.21 GiB
Duration : 1h 42mn
Overall bit rate : 1 692 Kbps

Video
ID : 0
Format : MPEG-4 Visual
Format profile : Advanced Simple@L5
Format settings, BVOP : 1
Format settings, QPel : No
Format settings, GMC : No warppoints
Format settings, Matrix : Default (H.263)
Codec ID : XVID
Codec ID/Hint : XviD
Duration : 1h 42mn
Bit rate : 1 458 Kbps
Width : 640 pixels
Height : 360 pixels
Display aspect ratio : 16:9
Frame rate : 25.000 fps
Color space : YUV
Chroma subsampling : 4:2:0
Bit depth : 8 bits
Scan type : Progressive
Compression mode : Lossy
Bits/(Pixel*Frame) : 0.253
Stream size : 1.05 GiB (86%)
Writing library : XviD 1.2.1 (UTC 2008-12-04)

Audio
ID : 1
Format : AC-3
Format/Info : Audio Coding 3
Mode extension : CM (complete main)
Codec ID : 2000
Duration : 1h 42mn
Bit rate mode : Constant
Bit rate : 224 Kbps
Channel(s) : 2 channels
Channel positions : Front: L R
Sampling rate : 48.0 KHz
Bit depth : 16 bits
Compression mode : Lossy
Stream size : 165 MiB (13%)
Alignment : Aligned on interleaves
Interleave, duration : 40 ms (1.00 video frame)
Interleave, preload duration : 512 ms


Plot:
With the help of three fans, The Muppets must reunite to save their old theater from a greedy oil tycoon

TRAILER:
[embed=youtube]http://www.youtube.com/watch?v=C4YhbpuGdwQ&feature=player_embedded[/embed]

image
image
image
image
image

Greets:

CRYS,IMAGINE,LKRG,FXG,3Li,FLAWL3SS,TA,iLLUSiON,EMBER,HOPE,GooN,BBnRG,NOGRP,ETRG,BHRG,iLLUMiNATi,MiSTERE.ViSiON,DTRG SAFCuk009,LU,TheFalcon007,MYSTiC,PrisM,Noir,WBZ,LAP,Rx,Kingdom,SAFCuk009+Fabreezy,HDLiTE,TWiZTED,ExtraTorrentRG.ELEKTRI4KA,MAGNAT,CM8
And to all the other p2p grps past and present




Make sure its a real Feel-Free release @ http://extratorrent.com

Thanks to all who promotes release Feel-Free !!!

Related Torrents

torrent name size files age seed leech

Sharing Widget


Download torrent
1.22 GB
seeders:0
leechers:0
The.Muppets.2011.DvDRip.XviD Feel-Free

Trackers

tracker name Status checked seeders leechers downloads
udp://tracker.1337x.org:80/announce
outdated 28 Jan 2013 - - -
udp://tracker.publicbt.com:80/announce
outdated 28 Jan 2013 - - -
udp://tracker.istole.it:80/announce
outdated 28 Jan 2013 - - -
udp://tracker.openbittorrent.com:80/announce
outdated 28 Jan 2013 - - -
http://pow7.com/announce
outdated 28 Jan 2013 - - -
http://exodus.desync.com:6969/announce
blocked 28 Jan 2013 - - -
udp://fr33domtracker.h33t.com:3310/announce
deleted 28 Jan 2013 - - -
http://tracker.novalayer.org:6969/announce
pending 28 Jan 2013 0 0 0
µTorrent compatible trackers list

Locations

name
KickassTorrents
ThePirateBay
ExtraTorrent
Limetorrents
Torrent hash: D80EB42B01A51BF7A765577BB4DC25CEF96B727D

All Comments

audio
9/10
video
9/10
please, leave only comments related to that torrent
or sign-in
0
poton79291 • 23 June 2012, 01:19
torrent downloaded
Show comment
looks great
0
pitney1uk2502 • 18 March 2012, 12:59
torrent downloaded
Show comment
audio: 10video: 10
good copy, thanks, kids loved it
0
czechlucka1148 • 07 March 2012, 21:55
torrent downloaded
Show comment
audio: 10video: 10
0
gregath9664 • 05 March 2012, 19:42
torrent downloaded
Show comment
audio: 10video: 10
Great quality as always!Thanks!!!
0
anonymous • 05 March 2012, 02:54 Show comment
How funny = everyone is waiting on you, FeelFree! Guess you must still be the greatest! Thanks for all that you share and for always being so dependable with your quality!
0
Outlaw694004 • 03 March 2012, 23:55
torrent downloaded
Show comment
audio: 9video: 9
Nice Rip! Thanks
0
anonymous • 29 February 2012, 23:36 Show comment
http://savesomewonga.wordpress.com/about Wonga Promo Code

User Opinions

gregath9664, torrented4845, Outlaw694004, prprettypls2058, dman0424781170, czechlucka1148, hughsface436, poton79291, handsonmands237, m_q8763 ... And 4 more
Report a bug