The Big Bang Theory - S05E12 - The Shiny Trinket Maneuver - 720p WEB-DL H.264 {$H@uN}

seeders: 0
leechers: 0
Added on Jan 14, 2012 by ShaunGP1330 in TV
Torrent verified. Downloaded 0 times.

  • View all The Big Bang Theory episodes
  • Episode title: The Shiny Trinket Maneuver
  • Episode: S05E12
  • Air date: 12 January 2012
  • IMDb link: 0898266
  • Original run: 24 September 2007 — Present
  • Summary:
    The Big Bang Theory is a comedy series about four young scientists who know all about the world of physics, and one girl, who gives the physics world a real spin.
    Written by Xenomorph101.59K
    report summary
The Big Bang Theory - S05E12 - The Shiny Trinket Maneuver - 720p WEB-DL H.264 {$H@uN} (Size: 194.08 MB)
  The Big Bang Theory - S05E12 - The Shiny Trinket Maneuver - 720p WEB-DL H.264 {$H@uN}.mkv 194.05 MB
  The Big Bang Theory - S05E12 - The Shiny Trinket Maneuver - 720p WEB-DL H.264 {$H@uN}.srt 30.31 KB

Description

"WEB-DL means straight from iTunes where they release "Bluray" quality episodes. Such episodes are without any Logo and Caps."


The Big Bang Theory - S05E12 - The Shiny Trinket Maneuver - 720p WEB-DL H.264 {$H@uN}

General:

Complete name : The Big Bang Theory - S05E12 - The Shiny Trinket Maneuver - 720p WEB-DL H.264 {$H@uN}.mkv
Original air date : January 12 2012
Genre : Sitcom
Language : English
Encoder : $H@uN
File format : Matroska
File size : 194 MiB
Duration : 20mn 51s
Overall bit rate : 1 301 Kbps


Video:

Format : AVC
Duration : 20mn 51s
Bit rate : 1 200 Kbps
Width : 1 280 pixels
Height : 720 pixels
Display aspect ratio : 16:9
Frame rate mode : Variable
Frame rate : 23.976 fps
Color space : YUV
Chroma subsampling : 4:2:0
Bit depth : 8 bits
Scan type : Progressive
Bits/(Pixel*Frame) : 0.054
Stream size : 176 MiB (91%)
Writing library : x264 core 112
Laguage : English
Subtitles : Seperate .srt file included


Audio:

Format : AC-3
Mode extension : CM (complete main)
Codec ID : A_AC3
Duration : 20mn 51s
Bit rate mode : Constant
Bit rate : 96 Kbps
Channel(s) : 2 channels
Channel positions : Front: L R
Sampling rate : 48.0 KHz
Bit depth : 16 bits
Compression mode : Lossy
Stream size : 14.3 MiB (7%)
Language : English

Screen Shots:

image

image

image


Encoder's Notes:

Do Provide Feedback.
Keep in Mind, you are charged nothing for Downloading a TORRENT, so its your duty to SEED n keep the torrent alive for as long as possible. Enjoy..!!! Keep Seeding till 1:1 ratio...

Sharing Widget


Download torrent
194.08 MB
seeders:0
leechers:0
The Big Bang Theory - S05E12 - The Shiny Trinket Maneuver - 720p WEB-DL H.264 {$H@uN}

Trackers

tracker name Status checked seeders leechers downloads
http://pow7.com/announce
outdated 29 Mar 2015 - - -
http://t1.pow7.com/announce
outdated 29 Mar 2015 - - -
http://secure.pow7.com/announce
outdated 29 Mar 2015 - - -
http://10.rarbg.com/announce
private 09 May 2012 - - -
udp://tracker.publicbt.com:80/announce
outdated 16 Jan 2012 - - -
http://cpleft.com:2710/announce
outdated 16 Jan 2012 - - -
udp://tracker.istole.it:80/announce
outdated 16 Jan 2012 - - -
http://tracker.istole.it/announce
outdated 16 Jan 2012 - - -
udp://tracker.openbittorrent.com:80/announce
outdated 16 Jan 2012 - - -
http://tracker.openbittorrent.com/announce
outdated 16 Jan 2012 - - -
http://tracker.irc.su/announce
outdated 16 Jan 2012 - - -
http://exodus.desync.com:6969/announce
blocked 23 Aug 2012 - - -
http://tracker.publicbt.com/announce
deleted 11 Mar 2013 - - -
http://9.rarbg.com:2710/announce
private 14 Jan 2012 - - -
http://tracker.blazing.de/announce
error 14 Jan 2012 - - -
http://tracker.novalayer.org:6969/announce
pending 16 Jan 2012 0 0 0
µTorrent compatible trackers list

Locations

name
KickassTorrents
Torrent hash: 58EEE5A8530F973DA18C2700C7C9353F176C0CE5

All Comments

audio
8/10
video
8/10
please, leave only comments related to that torrent
or sign-in
0
kartush2046 • 27 August 2012, 22:57
torrent downloaded
Show comment
audio: 9video: 9
0
JackSparrow6043 • 16 June 2012, 12:00
torrent downloaded
Show comment
audio: 9video: 9
Good as always
0
ziben72 • 24 January 2012, 23:48
torrent downloaded
Show comment
audio: 10video: 10
Ignore the first guy, keep uploading, great quality!!
0
vivekmw366 • 23 January 2012, 08:12
torrent downloaded
Show comment
audio: 7video: 7
Video:
Resolution: 624*352
Frame rate: 23 frames/second
Total bitrate: 1191 kbps
Not great, but OK print.

User Opinions

DeeJayTyrion30.03K, JackSparrow6043, kartush2046, ziben72
vivekmw366
Report a bug