The Avengers 2012 CROPPED R6 WEBscr Xvid AC3-TODE

seeders: 80
leechers: 10
Added on May 15, 2012 by UsaBit197.66K in Movies
Torrent verified. Downloaded 20,595 times.

  • add The Avengers to bookmarks
  • Release date: 04 May 2012
  • Writers: Joss Whedon (screenplay), Zak Penn (story), Joss Whedon (story)
  • Language: English
Summary:
Earth's mightiest heroes must come together and learn to fight as a team if they are to stop the mischievous Loki and his alien army from enslaving humanity.
Written by Chev.Chelios313.7K
report summary
The Avengers 2012 CROPPED R6 WEBscr Xvid AC3-TODE (Size: 1.34 GB)
  NFO.txt 2.43 KB
  The.Avengers.2012.CROPPED.R6.WEBscr.Xvid.AC3-TODE.avi 1.34 GB
  www.UsaBit.com.txt 1 bytes

Description

image

http://www.imdb.com/title/tt0848228/

Plot: Nick Fury of S.H.I.E.L.D. brings together a team of super humans to form The Avengers to help save the Earth from Loki and his army.


Director: Joss Whedon
Writers: Zak Penn (story), Joss Whedon (story)
Stars:Robert Downey Jr., Chris Evans and Scarlett Johansson
Genres:Action | Adventure | Sci-Fi
Country:USA
Language:English

Thanks : bRaVo



Format : AVI
Format/Info : Audio Video Interleave
Format profile : OpenDML
File size : 1.34 GiB
Duration : 2h 13mn
Overall bit rate : 1 437 Kbps
Writing application : Lavf54.3.100

Video
ID : 0
Format : MPEG-4 Visual
Format profile : Simple@L3
Format settings, BVOP : No
Format settings, QPel : No
Format settings, GMC : No warppoints
Format settings, Matrix : Default (H.263)
Codec ID : XVID
Codec ID/Hint : XviD
Duration : 2h 12mn
Bit rate : 1 300 Kbps
Width : 680 pixels
Height : 370 pixels
Display aspect ratio : 16:9
Frame rate : 29.970 fps
Color space : YUV
Chroma subsampling : 4:2:0
Bit depth : 8 bits
Scan type : Progressive
Compression mode : Lossy
Bits/(Pixel*Frame) : 0.172
Stream size : 1.21 GiB (90%)
Writing library : XviD 64

Audio
ID : 1
Format : AC-3
Format/Info : Audio Coding 3
Mode extension : CM (complete main)
Codec ID : 2000
Duration : 2h 13mn
Bit rate mode : Constant
Bit rate : 128 Kbps
Channel(s) : 2 channels
Channel positions : Front: L R
Sampling rate : 48.0 KHz
Bit depth : 16 bits
Compression mode : Lossy
Stream size : 122 MiB (9%)
Alignment : Aligned on interleaves
Interleave, duration : 32 ms (0.96 video frame)

image

image

image

image

Sharing Widget


Download torrent
1.34 GB
seeders:80
leechers:10
The Avengers 2012 CROPPED R6 WEBscr Xvid AC3-TODE

Trackers

tracker name Status checked seeders leechers downloads
udp://tracker.openbittorrent.com:80/announce
outdated 27 Jul 2012 - - -
http://tracker.istole.it/announce
outdated 27 Jul 2012 - - -
udp://tracker.publicbt.com:80/announce
outdated 27 Jul 2012 - - -
udp://tracker.istole.it:80/announce
outdated 27 Jul 2012 - - -
udp://tracker.1337x.org:80/announce
outdated 27 Jul 2012 - - -
http://cpleft.com:2710/announce
outdated 27 Jul 2012 - - -
http://ipv4.tracker.harry.lu/announce
outdated 27 Jul 2012 - - -
udp://11.rarbg.com:80/announce
private 27 Jul 2012 - - -
http://tracker.publicbt.com/announce
deleted 11 Mar 2013 - - -
udp://fr33domtracker.h33t.com:3310/announce
deleted 27 Jul 2012 - - -
ĀµTorrent compatible trackers list

Locations

name
KickassTorrents
Torrent hash: 3FBC96A7CB25B43AF7723DEF9DADFB6DDDD25888

All Comments

audio
6/10
video
7/10
please, leave only comments related to that torrent
or sign-in
0
MyVidsRocK13.18K • 04 July 2012, 22:37
torrent downloaded
Show comment
audio: 5video: 8
Great Video Quality for a cam But audio is out of sync with vlc by 0.750 seconds Fast Download Thanks
0
TH375.52K • 10 June 2012, 17:31
torrent downloaded
Show comment
audio: 9video: 9
0
anonymous • 10 June 2012, 16:51 Show comment
audio: 10video: 10
0
Tod123310 • 31 May 2012, 15:11
torrent downloaded
Show comment
nice one
0
fangbang311 • 29 May 2012, 02:29
torrent downloaded
Show comment
audio: 9video: 9
best copy by far
0
anonymous • 28 May 2012, 15:48 Show comment
audio: 10video: 10
AUDIO:10 VIDEO:10
0
anonymous • 23 May 2012, 15:32 Show comment
audio: 7video: 6
Show More All

User Opinions

MyVidsRocK13.18K, GrimPirate10.75K, bjxm2078, piccolodaimaku1938, asimak850, Amazin580, skin84166, jachcha120, $hadyRed7560, rollermaster12 ... And 33 more
ai10804525, toinks111537, rupunzel82334, Pheen_General228, paulmufc263, nayru60, Yuvbenda50
Report a bug