The Amazing Spiderman 2012 Worked Audio Complete HD CaM CrEwSaDe

seeders: 5
leechers: 1
Added on Jul 11, 2012 in Movies
Torrent verified. Downloaded 10 times.

Summary:
Peter Parker finds a clue that might help him understand why his parents disappeared when he was young. His path puts him on a collision course with his father's former partner, Dr. Curt Connors/The Lizard.
Written by 5fingerdis60.04K
report summary
The Amazing Spiderman 2012 Worked Audio Complete HD CaM CrEwSaDe (Size: 1020.42 MB)
  The Amazing Spiderman 2012 Worked Audio HD CaM CrEwSaDe.mp4 992.43 MB
  Sample 2.mp4 17.89 MB
  sample 1.mp4 10.08 MB
  12.33 KB
  Torrent downloaded from extratorrent.com.txt 353 bytes

Description



The Amazing Spiderman 2012 Worked Audio Complete HD CaM CrEwSaDe
******************************************************************************************************

Info:

Encoder: BoobyBlue (CamKiller)

Resolution: 720 x 304

Runtime: 2h 1mn

Release Date: Na

Theatre Date: 3 July 2012 (USA)

Language: English

Subtitles: No

IMDB Rating: 7.7

IMDb URL: http://www.imdb.com/title/tt0948470/
General

Complete name: The Amazing Spiderman 2012 Worked Audio Complete HD Cam CrEwSaDe\The Amazing Spiderman 2012 Worked Audio HD Cam CrEwSaDe.mp4

Format: MPEG-4

Format profile: Base Media / Version 2

Codec ID: mp42

File size: 992 MiB

Duration: 2h 1mn

Overall bit rate mode: Variable

Overall bit rate: 1 145 Kbps

Writing application: TMPGEnc Video Mastering Works 5 Version. 5.0.5.32
Video
ID: 2

Format: AVC

Format/Info: Advanced Video Codec

Format profile: High@L3.0

Format settings, CABAC: Yes

Format settings, ReFrames: 3 frames

Codec ID: avc1

Codec ID/Info: Advanced Video Coding

Duration: 2h 1mn

Bit rate mode: Constant

Bit rate: 1 024 Kbps / 1 024 Kbps

Width: 720 pixels

Height: 304 pixels

Display aspect ratio: 2.35:1

Frame rate mode: Constant

Frame rate: 25.000 fps

Standard: NTSC

Color space: YUV

Chroma subsampling: 4:2:0

Bit depth: 8 bits

Scan type: Progressive

Bits/(Pixel*Frame): 0.187

Stream size: 865 MiB (87%)

Writing library: x264 core 112

Encoding settings: cabac=1 / ref=3 / deblock=1:0:0 / analyse=0x3:0x113 / me=hex / subme=7 / psy=1 / psy_rd=1.00:0.00 / mixed_ref=1 / me_range=16 / chroma_me=1 / trellis=1 / 8x8dct=1 / cqm=2 / deadzone=21,11 / fast_pskip=1 / chroma_qp_offset=-2 / threads=3 / sliced_threads=0 / slices=1 / nr=0 / decimate=1 / interlaced=0 / constrained_intra=0 / bframes=3 / b_pyramid=0 / b_adapt=1 / b_bias=0 / direct=1 / weightb=1 / open_gop=0 / weightp=2 / keyint=250 / keyint_min=25 / scenecut=40 / intra_refresh=0 / rc_lookahead=40 / rc=cbr / mbtree=1 / bitrate=1024 / ratetol=1.0 / qcomp=0.60 / qpmin=3 / qpmax=51 / qpstep=4 / vbv_maxrate=1024 / vbv_bufsize=1015 / nal_hrd=cbr / frame-packing=0 / ip_ratio=1.40 / aq=1:1.00

Color primaries: BT.470-6 System B, BT.470-6 System G, BT.601-6 625, BT.1358 625, BT.1700 625 PAL, BT.1700 625 SECAM

Transfer characteristics: BT.470-6 System B, BT.470-6 System G

Matrix coefficients: BT.470-6 System B, BT.470-6 System G, BT.601-6 625, BT.1358 625, BT.1700 625 PAL, BT.1700 625 SECAM, IEC 61966-2-4 601
Audio
ID: 1

Format: AAC

Format/Info: Advanced Audio Codec

Format profile: LC

Codec ID: 40

Duration: 2h 1mn

Bit rate mode: Variable

Bit rate: 144 Kbps

Maximum bit rate: 1 588 Kbps

Channel(s): 6 channels

Channel positions: Front: L C R, Side: L R, LFE

Sampling rate: 44.1 KHz

Compression mode: Lossy

Delay relative to video: -51ms

Stream size: 125 MiB (13%)
SOURCES: VIDEO: 26k THANKS AUDIO: 26k Ty
Plot:

Peter Parker finds a clue that might help him understand why his parents disappeared when he was young. His path puts him on a collision course with Dr. Curt Connors, his father's former partner
Screens:



Sample:

Yes
Notes:

Ok heres version 1 the audio is eww but filtered it to make it sumwhat more listenable, didnt fiddle to much w the colors the video just needed smoothed out and cleaned a bit, but i did make it 5.1 surround so keep the volume low and u

you will be fine also added the end scene after credits to the encode all 1 file hope u like So Enjoy a True Quality encode frrom CrEwSaDe!

Related Torrents

torrent name size files age seed leech

Sharing Widget


Download torrent
1020.42 MB
seeders:5
leechers:1
The Amazing Spiderman 2012 Worked Audio Complete HD CaM CrEwSaDe

Trackers

tracker name Status checked seeders leechers downloads
udp://tracker.istole.it:80/announce
outdated 25 Nov 2013 - - -
udp://tracker.publicbt.com:80/announce
outdated 25 Nov 2013 - - -
http://tracker.torrentbay.to:6969/announce
outdated 02 Dec 2012 - - -
http://tracker.ccc.de/announce
outdated 16 Oct 2012 - - -
http://pow7.com/announce
outdated 07 Oct 2012 - - -
http://ipv4.tracker.harry.lu/announce
outdated 07 Oct 2012 - - -
http://tracker.istole.it/announce
outdated 07 Oct 2012 - - -
http://exodus.desync.com:6969/announce
blocked 07 Oct 2012 - - -
http://tracker.publicbt.com/announce
deleted 11 Mar 2013 - - -
udp://tracker.ccc.de:80/announce
deleted 07 Oct 2012 - - -
ĀµTorrent compatible trackers list

Locations

name
ExtraTorrent
ThePirateBay
Torrent hash: 0EC188E19FB246816D3209FF19717FD6C4183AC4

All Comments

audio
4/10
video
4/10
please, leave only comments related to that torrent
or sign-in
0
kfentd11270 • 08 October 2012, 14:46
torrent downloaded
Show comment
audio: 5video: 5
not bad for cam.
0
anonymous • 31 August 2012, 02:10 Show comment
will it play on ps3
0
JustBradferd139 • 26 August 2012, 15:34
torrent downloaded
Show comment
Watchable
0
anonymous • 25 September 2012, 21:24 Show comment
going bto find on differ site peeeeeace!
0
anonymous • 28 September 2012, 02:59 Show comment
speak porperly

0
sweetlyn30 • 04 August 2012, 00:55
torrent downloaded
Show comment
audio: 6video: 7
Best copy of this movie out. Believe me I've tried them ALL!!! Would give audio a higher rating but no sound for first 2min.
0
CJNOATIA995 • 20 July 2012, 03:24
torrent downloaded
Show comment
audio: 1video: 1
0
anonymous • 15 July 2012, 11:40 Show comment
U think it's good?
0
anonymous • 15 July 2012, 11:40 Show comment
Is....
0
anonymous • 15 July 2012, 11:40 Show comment
Awful it ie
0
anonymous • 15 July 2012, 11:39 Show comment
So awful
0
anonymous • 15 July 2012, 11:38 Show comment
Yes awful
Show More All

User Opinions

TimeBandits70.55K, saifulislamj42.12K, Raka.India2961, DeXtEr-BlOod2241, TheMentalist1830, fuzzyfeet187, fishface1155, steve087150, njasak105, sweetlyn30 ... And 2 more
CJNOATIA995, nwg5817398, Xenoxaga379, Luke_Dunn336, The_Guy101292, classy56188, cjmcguinness115, Abhi122747, ROAMA13
Report a bug