TED.2012.TS.XviD-COSA NOSTRA

seeders: 81
leechers: 13
Added on Jul 6, 2012 by Hackullus42.53K in Movies
Torrent verified. Downloaded 17,161 times.

  • Movie: Ted
  • Detected quality: TeleSync
  • IMDb link: 1637725
  • IMDb rating: 7.0 (388,938 votes)
  • RottenTomatoes: 68% 74%
  • Genres: Comedy, Fantasy
  • add Ted to bookmarks
  • Release date: 29 June 2012
  • Writers: Seth MacFarlane (screenplay), Alec Sulkin (screenplay), Wellesley Wild (screenplay), Seth MacFarlane (story)
  • Language: English
Summary:
As the result of a childhood wish, John Bennett's teddy bear, Ted, came to life and has been by John's side ever since - a friendship that's tested when Lori, John's girlfriend of four years, wants more from their relationship.
Written by 5fingerdis59.96K
report summary
TED.2012.TS.XviD-COSA NOSTRA (Size: 1.39 GB)
  TED 2012 TS XviD-COSA NOSTRA.avi 1.37 GB
  TEDsample.avi 14.62 MB
  TEDCN.nfo 3.44 KB
  Torrent downloaded from AhaShare.com.txt 59 bytes
  Torrent downloaded from Demonoid.me.txt 46 bytes
  Torrent downloaded from extratorrent.com.txt 40 bytes
  Torrent downloaded from Rarbg.com.txt 33 bytes
  torrent downloaded from H33T.com.txt 32 bytes

Description

image


http://www.imdb.com/title/tt1637725/

Source: don't ask

Notes:
Well quite abit of work went into this one. Video is not the best, had a heavy flicker which
we removed almost completely, but focus was the main issue here.First 4 min is missing, nothing special happens
anyway and a little cam movement in the first couple min and there's an object throughout(check screens). Made it watchable but check sample and the nice LiNE audio topped it off. We recommend watching as it's a funny ass movie you'll watch more then once. Enjoy!

Source: don't ask

TED 2012 TS XviD-COSA NOSTRA

Format : AVI
Format/Info : Audio Video Interleave
File size : 1.37 GiB
Duration : 1h 35mn
Overall bit rate : 2 063 Kbps


Video
ID : 0
Format : MPEG-4 Visual
Format profile : Advanced Simple@L5
Format settings, BVOP : 2
Format settings, QPel : No
Format settings, GMC : No warppoints
Format settings, Matrix : Default (H.263)
Muxing mode : Packed bitstream
Codec ID : XVID
Codec ID/Hint : XviD
Duration : 1h 35mn
Bit rate : 1 923 Kbps
Width : 720 pixels
Height : 384 pixels
Display aspect ratio : 1.85:1
Frame rate : 29.970 fps
Color space : YUV
Chroma subsampling : 4:2:0
Bit depth : 8 bits
Scan type : Progressive
Compression mode : Lossy
Bits/(Pixel*Frame) : 0.232
Stream size : 1.28 GiB (93%)
Writing library : XviD 64

Audio
ID : 1
Format : MPEG Audio
Format version : Version 1
Format profile : Layer 3
Mode : Joint stereo
Mode extension : MS Stereo
Codec ID : 55
Codec ID/Hint : MP3
Duration : 1h 35mn
Bit rate mode : Constant
Bit rate : 128 Kbps
Channel(s) : 2 channels
Sampling rate : 48.0 KHz
Compression mode : Lossy
Stream size : 87.2 MiB (6%)
Alignment : Split accross interleaves
Interleave, duration : 33 ms (1.00 video frame)
Interleave, preload duration : 500 ms
Writing library : LAME3.99

As the result of a childhood wish, John Bennett's teddy bear, Ted, came to life and has been by John's side ever since - a friendship that's tested when Lori, John's girlfriend of four years, wants more from their relationship.

image
image
image
image

Related Torrents

torrent name size files age seed leech

Sharing Widget


Download torrent
1.39 GB
seeders:81
leechers:13
TED.2012.TS.XviD-COSA NOSTRA

Trackers

tracker name Status checked seeders leechers downloads
udp://9.rarbg.com:2710/announce
outdated 30 Oct 2013 - - -
udp://tracker.openbittorrent.com:80/announce
outdated 30 Oct 2013 - - -
udp://tracker.publicbt.com:80/announce
outdated 30 Oct 2013 - - -
http://inferno.demonoid.me:3390/announce
outdated 27 Aug 2013 - - -
http://tracker.istole.it/announce
outdated 27 Aug 2013 - - -
udp://tracker.istole.it:80/announce
outdated 27 Aug 2013 - - -
udp://11.rarbg.com:80/announce
private 30 Oct 2013 - - -
http://tracker.publicbt.com/announce
deleted 27 Aug 2013 - - -
udp://fr33domtracker.h33t.com:3310/announce
deleted 27 Aug 2013 - - -
udp://10.rarbg.com:80/announce
private 30 Oct 2013 81 13 10
ĀµTorrent compatible trackers list

Locations

name
KickassTorrents
Torrent hash: 3F73D0AC94AAF62A5221F3D3E4A2FB86DA912C57

Top Comments

13
NexTfromPT89 • 07 Jul 2012, 11:40
audio: 8video: 5
i've seen it and is not that bad.. you just need to watch it in a small screen, not full screen.. its blurry, but the sound is pretty close to perfect.. and bearing in mind that the movie will only come out at the 19th in my country.. its worth to see this :D
5
WorldISYours28 • 06 Sep 2012, 21:16
torrent downloaded
audio: 1video: 1
TERRRIBBLE! Dont download!

All Comments

audio
4/10
video
3/10
please, leave only comments related to that torrent
or sign-in
0
duks11111259 • 25 October 2013, 20:10
torrent downloaded
Show comment
audio: 5video: 1
bad, bad copy
0
diyako2846 • 25 October 2013, 13:55 Show comment
audio: 6video: 5
good!
0
abhi_nino4340 • 23 October 2013, 11:51
torrent downloaded
Show comment
audio: 6video: 4
Thanks uploader
0
anonymous • 16 September 2013, 22:14 Show comment
This is either the worst video quality i have ever seen, or the best potato recording.
0
anonymous • 14 September 2013, 06:03 Show comment
audio: 1video: 1
bad video, no audio.. don't DL..
0
Mokum76127.83K • 18 August 2013, 23:51
torrent downloaded
Show comment
audio: 4video: 4
Thanks
0
Hate 2 Pay4 • 24 May 2013, 20:24 Show comment
One of the worst DL's ever, don't waste your time!
Show More All

User Opinions

ludovic352720, persia882223, VonDutch692037, Ulaana1620, toxictoadz1243, malcmag874, Gibric667, miztotoro72292, Ang3l031139, myyuter27 ... And 438 more
pepsiking3623, Alrhino815, HEPERIONAS764, matyk763, nexionly706, Dr_B2591, zyle268, meerkatt158, BORISIAN39, luna29 ... And 230 more
Report a bug