Survivor S24E06 Thanks for the Souvenir.480p.HDTV.x264-KarMa

seeders: 1
leechers: 0
Added on Mar 22, 2012 by KarMax2642700 in TV
Torrent verified. Downloaded 334 times.

  • View all Survivor episodes
  • Episode title: Thanks For The Souvenir
  • Episode: S24E06
  • Air date: 21 March 2012
  • IMDb link: 0239195
  • Original run: 31 May 2000 — Present
  • Summary:
    A reality show where a group of contestants are stranded in a remote location with little more than the clothes on their back. The lone survivor of this contest takes home a million dollars.
    Written by TH370.03K
    report summary
Survivor S24E06 Thanks for the Souvenir.480p.HDTV.x264-KarMa (Size: 337.06 MB)
  Survivor S24E06 Thanks for the Souvenir.480p.HDTV.x264-KarMa.mp4 336.63 MB
  vlcsnap-2012-03-22-00h37m21s179.png 436.15 KB
  I plan on doing the rest of Season 24.txt 162 bytes
  Torrent downloaded from Demonoid.me.txt 46 bytes

Description

---
Survivor S24E06 Thanks for the Souvenir.480p.HDTV.x264-KarMa
Source: This video is a encoding from my own recording ~~~ KarMa

High Quality - Ultra Small Size
image

Snapshots
image
image
Fullsize
http://imgcrave.com/u/PVLf.png
http://imgcrave.com/u/TXQDO.png

General
Complete name : Survivor S24E06 Thanks for the Souvenir.480p.HDTV.x264-KarMa.mp4
Format : MPEG-4 AVC (x264)
File size : 337 MiB
Duration : 42mn 15s
Overall bit rate mode : Variable
Overall bit rate : 1 114 Kbps
-
Video
Format : AVC
Format profile : High@L3.1
Format settings, CABAC : Yes
Format settings, ReFrames : 4 frames
Codec ID : avc1
Duration : 42mn 14s
Bit rate : 1 000 Kbps
Maximum bit rate : 7 389 Kbps
Width : 848 pixels
Height : 480 pixels
Display aspect ratio : 16:9
Frame rate mode : Constant
Frame rate : 29.970 fps
Scan type : Progressive
Bits/(Pixel*Frame) : 0.082
Stream size : 302 MiB (90%)
Writing library : x264 core 120
Encoding settings : cabac=1 / ref=3 / deblock=1:0:0 / analyse=0x3:0x113 / me=umh / subme=9 / psy=1 / psy_rd=1.00:0.15 / mixed_ref=1 / me_range=64 / chroma_me=1 / trellis=1 / 8x8dct=1 
-
Audio
Format : AAC
Format/Info : Advanced Audio Codec
Format profile : HE-AAC / LC
Codec ID : 40
Duration : 42mn 15s
Bit rate mode : Variable
Bit rate : 111 Kbps
Maximum bit rate : 126 Kbps
Channel(s) : 2 channels
Channel positions : Front: L R
Sampling rate : 48.0 KHz / 24.0 KHz
Compression mode : Lossy
Stream size : 33.5 MiB (10%)

Sharing Widget


Download torrent
337.06 MB
seeders:1
leechers:0
Survivor S24E06 Thanks for the Souvenir.480p.HDTV.x264-KarMa

Trackers

tracker name Status checked seeders leechers downloads
udp://tracker.openbittorrent.com:80/announce
outdated 27 Mar 2012 - - -
udp://tracker.publicbt.com:80/announce
outdated 27 Mar 2012 - - -
udp://tracker.istole.it:80/announce
outdated 27 Mar 2012 - - -
udp://tracker.1337x.org:80/announce
outdated 27 Mar 2012 - - -
http://exodus.desync.com:6969/announce
blocked 23 Aug 2012 - - -
http://tracker.publicbt.com/announce
deleted 11 Mar 2013 - - -
http://fr33dom.h33t.com:3310/announce
deleted 10 Mar 2013 - - -
µTorrent compatible trackers list

Locations

name
KickassTorrents
Torrent hash: 631410F3EEBC07153C46D24926FD2F0A50415C34

All Comments

audio
0/10
video
0/10
please, leave only comments related to that torrent
or sign-in
Report a bug