Sinister.2011.DVDRip.XViD.SeT- CM8

seeders: 18
leechers: 1
Added on Dec 12, 2011 by legend65.11K in Movies
Torrent verified. Downloaded 16 times.

Summary:
A horrifying excursion into black magic and white-knuckled terror! A conjure man has moved into town with a big bag of tricks and a short temper. Unwittingly, Emily crosses his path and provokes his wrath. As the nightmare of his curse progresses, Emily enlists the aid of her brother to find out what's happening and try to reverse the hex before it's too late!
Written by Sk3Tch3R26.32K
report summary
Available in versions: DVDRip
Sinister.2011.DVDRip.XViD.SeT- CM8 (Size: 725.61 MB)
  Sinister.2011.DVDRip.XViD.SeT-CM8.nfo 3.77 KB
  Sinister.2011.DVDRip.XViD.SeT-CM8.avi 725.61 MB
  Torrent downloaded from extratorrent.com.txt 353 bytes

Description



image

Sinister 2011 DVDRip XViD SeT-CM8

A horrifying excursion into black magic and white-knuckled terror! A conjure man (Lucien Eisenach) has moved into town with a big bag of tricks and a short temper.
Unwittingly, Emily (Donna Hamblin) crosses his path and provokes his wrath. As the nightmare of his curse progresses, Emily enlists the aid of her brother (Donny Versiga) to find
out what's happening and try to reverse the hex before it's too late!

http://www.imdb.com/title/tt1841835/

CM8 Doing It Right The First Time

Source: Own

General
Complete name : Sinister.2011.DVDRip.XViD.SeT-CM8.avi
Format : AVI
Format/Info : Audio Video Interleave
File size : 726 MiB
Duration : 1h 26mn
Overall bit rate : 1 172 Kbps

Video
ID : 0
Format : MPEG-4 Visual
Format profile : Advanced Simple@L5
Format settings, BVOP : 2
Format settings, QPel : No
Format settings, GMC : No warppoints
Format settings, Matrix : Default (H.263)
Codec ID : XVID
Codec ID/Hint : XviD
Duration : 1h 26mn
Bit rate : 968 Kbps
Width : 720 pixels
Height : 404 pixels
Display aspect ratio : 16:9
Frame rate : 29.970 fps
Color space : YUV
Chroma subsampling : 4:2:0
Bit depth : 8 bits
Scan type : Progressive
Compression mode : Lossy
Bits/(Pixel*Frame) : 0.111
Stream size : 600 MiB (83%)
Writing library : XviD 1.2.1 (UTC 2008-12-04)

Audio
ID : 1
Format : AC-3
Format/Info : Audio Coding 3
Mode extension : CM (complete main)
Codec ID : 2000
Duration : 1h 26mn
Bit rate mode : Constant
Bit rate : 192 Kbps
Channel(s) : 2 channels
Channel positions : Front: L R
Sampling rate : 48.0 KHz
Bit depth : 16 bits
Compression mode : Lossy
Stream size : 119 MiB (16%)
Alignment : Aligned on interleaves
Interleave, duration : 33 ms (1.00 video frame)

image
image
image
image
image
image
image
image

Related Torrents

torrent name size files age seed leech

Sharing Widget


Download torrent
725.61 MB
seeders:18
leechers:1
Sinister.2011.DVDRip.XViD.SeT- CM8

Trackers

tracker name Status checked seeders leechers downloads
http://tracker.ex.ua/announce
outdated 02 Jan 2014 - - -
udp://tracker.openbittorrent.com:80/announce
outdated 02 Jan 2014 - - -
udp://tracker.publicbt.com:80/announce
outdated 02 Jan 2014 - - -
http://tracker.torrentbay.to:6969/announce
outdated 01 May 2013 - - -
http://tracker.openbittorrent.com/announce
outdated 01 May 2013 - - -
http://ipv4.tracker.harry.lu/announce
outdated 01 May 2013 - - -
http://tracker.pow7.com/announce
outdated 01 May 2013 - - -
udp://tracker.1337x.org:80/announce
outdated 01 May 2013 - - -
http://10.rarbg.com/announce
private 01 May 2013 - - -
http://exodus.desync.com:6969/announce
blocked 01 May 2013 - - -
http://fr33dom.h33t.com:3310/announce
deleted 20 May 2013 - - -
http://tracker.publicbt.com/announce
deleted 01 May 2013 - - -
µTorrent compatible trackers list

Locations

name
KickassTorrents
ThePirateBay
Fenopy
ExtraTorrent
Limetorrents
Torrent hash: 4C5AAC6D7D55FC4D52809354202EC0E2E203CFE6

All Comments

audio
6/10
video
6/10
please, leave only comments related to that torrent
or sign-in
0
Mr00724773 • 18 November 2013, 15:01 Show comment
Thanks!Good&fast torrent, but horrible movie."waist of time&space"Not the 2012 movie I was looking for....
0
yellowhawk203 • 11 August 2013, 19:54
torrent downloaded
Show comment
broken stream when super8 was played
0
anonymous • 11 August 2013, 00:00 Show comment
dont download.it's not the real SINISTER MOVIE! and you can go f@!@#k yourself. ASSHOLE!
0
anonymous • 14 April 2013, 21:17 Show comment
why alyuh dont hush alyuh mother cunt! and just watch the damn movie
0
kidzrback1315 • 26 January 2013, 16:21
torrent downloaded
Show comment
audio: 9video: 9
0
anonymous • 20 January 2013, 03:41 Show comment
There were no teen tits or vag in this. It sucked balls. If you want a real movie with tits and vag watch: Maladolescenza Young girls get fucking NAKED in it! Just bare with the subtitles though.
0
anonymous • 20 January 2013, 03:59 Show comment
You do realize there are movies dedicated to just that... Porn

0
anonymous • 20 January 2013, 03:39 Show comment
Fuck.
0
Knight7681 • 14 January 2013, 04:19
torrent downloaded
Show comment
Movie started out to slow for me was very boring
0
anonymous • 15 January 2013, 22:35 Show comment
too... not to
1
anonymous • 20 March 2013, 23:35 Show comment
no one cares.

0
anonymous • 07 January 2013, 05:52 Show comment
audio: 1video: 1
friggin jerk. home made stupid video!!!
0
anonymous • 06 January 2013, 04:36 Show comment
NOT THE ETHAN HAWKE MOVIE!!!
Show More All

User Opinions

MoonChild12.33K, franga5203, Fireman58444486, private376201447, pachyderme1010, Rainmanskid923, meezy21601, atomicvamp398, robinsonbenjamin389, gunjoe347 ... And 247 more
kidzrback1315, malvina111876, ntinaras710, CANUFR33M3475, VictorPak374, verd0cas351, DVDRipp3r123, Glor020873, AlenPyzer35, Th3ophilus30 ... And 49 more
Report a bug