Sherlock Holmes 2 A Game Of Shadows (2011) TS x264-BBnRG

seeders: 0
leechers: 0
Added on Dec 25, 2011 in Movies
Torrent verified. Downloaded 0 times.

Summary:
Sherlock Holmes and his sidekick Dr. Watson join forces to outwit and bring down their fiercest adversary, Professor Moriarty.
Written by Firestorm.45.47K
report summary
Sherlock Holmes 2 A Game Of Shadows (2011) TS x264-BBnRG (Size: 702.93 MB)
  READ this before playing the Movie.txt 473 bytes
  SH2-NFO-BBnRG.nfo 13.53 KB
  Sherlock Holmes 2 A Game Of Shadows (2011) TS x264-BBnRG.mp4 701.37 MB
  www.Torrenting.com.txt 473 bytes
  Screenshots + Cover

Description

.

http://www.torrenting.com : Once & For all ;)


www . Torrenting . Com

(((((((((((((= Enjoy No RAR releases =))))))))))))))))))))


...................................NFO:....................................

.




















Presents...



Sherlock Holmes 2: A Game Of Shadows (2011) TS x264-BBnRG















Format : MPEG-4
Format profile : Base Media / Version 2
Codec ID : mp42
File size : 701 MiB
Duration : 1h 59mn
Overall bit rate mode : Variable
Overall bit rate : 820 Kbps

Video
ID : 1
Format : AVC
Format/Info : Advanced Video Codec
Format profile : High@L2.1
Format settings, CABAC : Yes
Format settings, ReFrames : 4 frames
Codec ID : avc1
Codec ID/Info : Advanced Video Coding
Duration : 1h 59mn
Bit rate mode : Variable
Bit rate : 655 Kbps
Width : 680 pixels
Height : 282 pixels
Display aspect ratio : 2.40:1
Frame rate mode : Constant
Frame rate : 25.000 fps
Color space : YUV
Chroma subsampling : 4:2:0
Bit depth : 8 bits
Scan type : Progressive
Bits/(Pixel*Frame) : 0.137
Stream size : 561 MiB (80%)
Writing library : x264 core 112

Audio
ID : 2
Format : AAC
Format/Info : Advanced Audio Codec
Format profile : LC
Codec ID : 40
Duration : 1h 59mn
Bit rate mode : Variable
Bit rate : 160 Kbps
Maximum bit rate : 204 Kbps
Channel(s) : 2 channels
Channel positions : Front: L R
Sampling rate : 48.0 KHz
Compression mode : Lossy
Stream size : 137 MiB (20%)
Language : English


















Sherlock Holmes: A Game of Shadows (2011)
Sherlock Holmes and his sidekick Dr. Watson join forces to outwit and
bring down their fiercest adversary, Professor Moriarty.

Ratings: 7.8/10 from 13,352 Votes

http://www.imdb.com/title/tt1515091/


















Source: UnKnOwN (Thanks!)



Encoder: SMiLE ☺

Thanks again to UnKnOwN for the source, we just took it and ran some
filters over it, tried to brighten it up a tad. We then dropped it in
for conversion and ran our custom encode settings over it. Came out
pretty nice, video is still a little dark but it's watchable. Audio
is pretty clear and sweet LiNE. Enjoy and Merry Christmas! ☻
















To Our Friends & To The Past, Present And Future Of p2p.

If You Have Anything That You Can Provide Us With:

Come And Find Us...

Related Torrents

torrent name size files age seed leech

Sharing Widget


Download torrent
702.93 MB
seeders:0
leechers:0
Sherlock Holmes 2 A Game Of Shadows (2011) TS x264-BBnRG

Trackers

tracker name Status checked seeders leechers downloads
udp://tracker.publicbt.com:80/announce
outdated 10 Jan 2015 - - -
udp://tracker.openbittorrent.com:80/announce
outdated 10 Jan 2015 - - -
http://tracker.openbittorrent.com/announce
outdated 15 Mar 2013 - - -
http://exodus.desync.com:6969/announce
blocked 15 Mar 2013 - - -
http://tracker.publicbt.com/announce
deleted 15 Mar 2013 - - -
µTorrent compatible trackers list

Locations

name
ThePirateBay
Limetorrents
Torrent hash: 1bf4703f0be8fc5c3d66e0fe0322218ea0a4fff5

All Comments

audio
6/10
video
5/10
please, leave only comments related to that torrent
or sign-in
0
anonymous • 18 February 2012, 02:01 Show comment
not good
0
anonymous • 18 February 2012, 02:01 Show comment
audio: 2video: 2
0
anonymous • 02 February 2012, 09:00 Show comment
audio: 1video: 1
0
capuano2230 • 19 January 2012, 23:33
torrent downloaded
Show comment
It´s not good yet, wait R% or DVDRip.
0
anonymous • 18 January 2012, 13:28 Show comment
audio: 5video: 5
0
atix05904 • 16 January 2012, 12:29
torrent downloaded
Show comment
audio: 7video: 6
thx n watchable
0
anonymous • 14 January 2012, 10:30 Show comment
quite poor quality!! I found HD online just search in google for "2devil4inside" they also have fast download server.great site
0
castberry5647 • 07 January 2012, 05:24
torrent downloaded
Show comment
audio: 7video: 6
Thanksloveliness
0
angelrazdan158 • 02 January 2012, 07:12
torrent downloaded
Show comment
Fake
0
Adarsh.sn28 • 01 January 2012, 05:34 Show comment
Comment is deleted
0
anonymous • 01 January 2012, 09:18 Show comment
oh yeah you idiot who cant even spam intelligently? we are gonna find a hollywood movie on a blog that lists the price of gadgets in india??

Show More All

User Opinions

Report a bug