Prometheus 2012 HDCAM RIP XVID WDR(AT)

seeders: 6
leechers: 3
Added on Jun 14, 2012 in Movies
Torrent verified. Downloaded 24 times.

  • add Prometheus to bookmarks
  • Release date: 07 June 2012
  • Writers: Jon Spaihts, Damon Lindelof, Dan O'Bannon (elements), Ronald Shusett (elements)
Summary:
A team of explorers discover a clue to the origins of mankind on Earth, leading them on a journey to the darkest corners of the universe. There, they must fight a terrifying battle to save the future of the human race.
Written by DeadShot10144.08K
report summary
Prometheus 2012 HDCAM RIP XVID WDR(AT) (Size: 702.14 MB)
  NFO.nfo 2.05 KB
  Prometheus.2012.HDCAM.RIP.XVID-WDR(AT).avi 702.14 MB
  Read this before playing this Video.txt 222 bytes
  Torrent have been downloaded from Scenetime.com.txt 222 bytes

Description

.
..............................Site Info...........................

- http://www.scenetime.com *_*


Scenetime .Always on time . friendly online private torrent community ..

We care to share . Join us on http://www.scenetime.com

Be the first to get new release at http://www.scenetime.com

Seed back for speed


...................................NFO:.................................................Format : AVI
Format/Info : Audio Video Interleave
File size : 702 MiB
Duration : 1h 49mn
Overall bit rate : 893 Kbps
Writing application : VirtualDubMod 1.5.10.2 (build 2542/release)
Writing library : Boilsoft AVI tool build 1/release

Video
ID : 0
Format : MPEG-4 Visual
Format profile : Advanced Simple@L5
Format settings, BVOP : Yes
Format settings, QPel : No
Format settings, GMC : No warppoints
Format settings, Matrix : Default (MPEG)
Codec ID : XVID
Codec ID/Hint : XviD
Duration : 1h 49mn
Bit rate : 755 Kbps
Width : 720 pixels
Height : 336 pixels
Display aspect ratio : 2.2:1
Frame rate : 25.000 fps
Color space : YUV
Chroma subsampling : 4:2:0
Bit depth : 8 bits
Scan type : Progressive
Bits/(Pixel*Frame) : 0.125
Stream size : 594 MiB (85%)
Writing library : XviD 1.2.1 (UTC 2008-12-04)

Audio
ID : 1
Format : MPEG Audio
Format version : Version 1
Format profile : Layer 3
Codec ID : 55
Codec ID/Hint : MP3
Duration : 1h 49mn
Bit rate mode : Constant
Bit rate : 128 Kbps
Channel(s) : 2 channels
Sampling rate : 44.1 KHz
Stream size : 101 MiB (14%)
Alignment : Split accross interleaves
Interleave, duration : 40 ms (1.00 video frame)
Interleave, preload duration : 500 ms

Related Torrents

torrent name size files age seed leech

Sharing Widget


Download torrent
702.14 MB
seeders:6
leechers:3
Prometheus 2012 HDCAM RIP XVID WDR(AT)

Trackers

tracker name Status checked seeders leechers downloads
udp://tracker.istole.it:80/announce
outdated 14 Jun 2012 - - -
udp://tracker.1337x.org:80/announce
outdated 14 Jun 2012 - - -
http://tracker.istole.it/announce
outdated 14 Jun 2012 - - -
udp://tracker.publicbt.com:80/announce
outdated 14 Jun 2012 - - -
udp://tracker.openbittorrent.com:80/announce
outdated 14 Jun 2012 - - -
http://exodus.desync.com:6969/announce
blocked 19 Aug 2012 - - -
http://tracker.publicbt.com/announce
deleted 11 Mar 2013 - - -
udp://fr33domtracker.h33t.com:3310/announce
deleted 14 Jun 2012 - - -
µTorrent compatible trackers list

Locations

name
ThePirateBay
Torrent hash: DCA2011A261DDBB4FB6A874AE7C7BF9B2BC1A43C

All Comments

audio
0/10
video
0/10
please, leave only comments related to that torrent
or sign-in
0
ajax878 • 14 June 2012, 21:43
torrent downloaded
Show comment
Move on. This copy is worsethan the hope copy. Thanks for the effort.
Report a bug