Piranha 2010 [18+] BRRip 720p [Dual Audio] [Hindi-English] by imkhan -=[TDT]=-*First On Net*

seeders: 0
leechers: 0
Added on Aug 13, 2011 in Movies > Dubbed Movies
Torrent verified. Downloaded 0 times.

Summary:
After a sudden underwater tremor sets free scores of the prehistoric man-eating fish, an unlikely group of strangers must band together to stop themselves from becoming fish food for the area's new razor-toothed residents.
Written by 5fingerdis58.21K
report summary
Available in versions: 1080p720pHDRiPDVDRip
Piranha 2010 [18+] BRRip 720p [Dual Audio] [Hindi-English] by imkhan -=[TDT]=-*First On Net* (Size: 605.57 MB)
  Piranha 2010 BRRip 720p Dual Audio [Hin-Eng] by imkhan -=[TDT]=-.mkv 599.59 MB
  Piranha 2010 BRRip Sample.mkv 5.98 MB

Description

CLICK HERE TO CHECK MY ALL OTHER UPLOADS




Piranha 2010 [18+] BRRip 720p [Dual Audio] [Hindi-English] by imkhan -=[TDT]=-*First On Net*







ORIGINAL HINDI AUDIO

Strongly Recommended For 18+









Quote:


http://www.imdb.com/title/tt0464154/

General
Complete name : Piranha 2010 BRRip 720p Dual Audio [Hin-Eng] by imkhan -=[TDT]=-.mkv
Format : Matroska
File size : 600 MiB
Duration : 1h 19mn[end credit cut]
Overall bit rate : 1 060 Kbps
Movie name : Piranha 2010 BRRip 720p Dual Audio [Hin-Eng] by imkhan -=[TDT]=-
Encoded date : UTC 2011-08-12 12:24:30
Writing application : mkvmerge v4.7.0 (\'Just Like You Imagined\') built on Apr 21 2011 01:13:14
Writing library : libebml v1.2.0 + libmatroska v1.1.0






Video
ID : 1
Format : AVC
Format/Info : Advanced Video Codec
Format settings, CABAC : Yes
Format settings, ReFrames : 8 frames
Muxing mode : Container
Codec ID : V_MPEG4/ISO/AVC
Duration : 1h 19mn
Bit rate : 847 Kbps
Nominal bit rate : 817 Kbps
Width : 1 280 pixels
Height : 536 pixels
Display aspect ratio : 2.35:1
Frame rate : 25.000 fps
Resolution : 24 bits
Colorimetry : 4:2:0
Scan type : Progressive
Bits/(Pixel*Frame) : 0.049
Stream size : 479 MiB (80%)
Title : imkhan
Writing library : x264 core 92 r1510 33d382a
Encoding settings : cabac=1 / ref=8 / deblock=1:0:0 / analyse=0x3:0x133 / me=umh / subme=7 / psy=1 / psy_rd=1.00:0.10 / mixed_ref=1 / me_range=16 / chroma_me=1 / trellis=2 / 8x8dct=1 / cqm=0 / deadzone=21,11 / fast_pskip=0 / chroma_qp_offset=-3 / threads=3 / sliced_threads=0 / nr=0 / decimate=1 / interlaced=0 / constrained_intra=0 / bframes=3 / b_pyramid=2 / b_adapt=2 / b_bias=0 / direct=3 / wpredb=1 / wpredp=2 / keyint=250 / keyint_min=25 / scenecut=40 / intra_refresh=0 / rc_lookahead=50 / rc=2pass / mbtree=1 / bitrate=817 / ratetol=1.0 / qcomp=0.60 / qpmin=10 / qpmax=51 / qpstep=4 / cplxblur=20.0 / qblur=0.5 / ip_ratio=1.40 / aq=1:1.30
Language : Hindi






Audio #1
ID : 2
Format : MPEG Audio
Format version : Version 1
Format profile : Layer 3
Codec ID : A_MPEG/L3
Codec ID/Hint : MP3
Duration : 1h 19mn
Bit rate mode : Constant
Bit rate : 96.0 Kbps
Channel(s) : 2 channels
Sampling rate : 44.1 KHz
Resolution : 16 bits
Stream size : 54.3 MiB (9%)
Title : imkhan
Writing library : LAME3.98.2
Language : Hindi






Audio #2
ID : 3
Format : MPEG Audio
Format version : Version 1
Format profile : Layer 3
Codec ID : A_MPEG/L3
Codec ID/Hint : MP3
Duration : 1h 19mn
Bit rate mode : Constant
Bit rate : 96.0 Kbps
Channel(s) : 2 channels
Sampling rate : 44.1 KHz
Resolution : 16 bits
Stream size : 54.3 MiB (9%)
Title : imkhan
Writing library : LAME3.98.2






Orignal Hindi Audio



Both the audios are completely synchronized



Do not comment about audio synchronization



Check Sample Before Download



Sample [In Dual Audio] With Torrent


























ALL CREDIT TO ORIGNAL RIPPER


IF U LIKE MY WORK ADD REVEIW BELOW:

Related Torrents

torrent name size files age seed leech

Sharing Widget


Download torrent
605.57 MB
seeders:0
leechers:0
Piranha 2010 [18+] BRRip 720p [Dual Audio] [Hindi-English] by imkhan -=[TDT]=-*First On Net*

Trackers

tracker name Status checked seeders leechers downloads
udp://tracker.publicbt.com:80/announce
outdated 22 Apr 2014 - - -
udp://tracker.openbittorrent.com:80/announce
outdated 22 Apr 2014 - - -
http://tracker.openbittorrent.com/announce
outdated 27 Sep 2013 - - -
http://tracker.publicbt.com/announce
deleted 27 Sep 2013 - - -
http://exdesi.com:6969/0003103fa20a01bbf324e5200795e310/announce
pending 27 Sep 2013 0 0 0
ĀµTorrent compatible trackers list

Locations

name
ExtraTorrent
Torrent hash: 071c628a21688da6f6b8e041254ce9cc9b2d1189

All Comments

audio
9/10
video
9/10
please, leave only comments related to that torrent
or sign-in
0
javee16 • 23 April 2012, 14:57 Show comment
please upload. {The sea beast} in hindi plz
0
vinayak.jadhav784 • 20 August 2011, 05:42
torrent downloaded
Show comment
audio: 9video: 9
Good Movie
0
anonymous • 14 August 2011, 05:02 Show comment
audio: 10video: 10
Awesome, thanks very much for this! Hope you can do the same for the stuart little trilogy

User Opinions

Report a bug