Parichay(1972)Hindi-DVDRip-XviD ~ Smeet

seeders: 0
leechers: 0
Added on Dec 29, 2009 in Movies > Bollywood
Torrent verified. Downloaded 0 times.

Summary:
In desperate need of a job, unemployed Ravi goes to his maternal uncle and aunt in their village for a few days.His uncle decides that he can be a suitable teacher for five obstinate and spoiled grand-children of the wealthy Rai Saheb.Ravi accepts this offer, and goes to work as a tutor with them.He soon realizes that it is not upto him to keep his employment there, but rather to the children themselves, who have never tolerated any tutor beyond a few days.
Written by Ascetic_trip18.02K
report summary
Parichay(1972)Hindi-DVDRip-XviD ~ Smeet (Size: 707.26 MB)
  Parichay(1972)Hindi-DVDRip-XviD ~ Smeet.avi 700.99 MB
  Parichay(1972)Hindi-DVDRip-XviD ~ Smeet.srt 109.3 KB
  smeet.nfo 7.18 KB
  sub

Description

################## TM
##^^^^^^^^^^^^^^^^####
############## #^^^^^^^^^^^^^^^^^^^##
###### #### #########^^^^^# #^^^^^#########^^^^^#
###### ####### ###########^^^# #^^^^^^^^^^^^^#^^^^^#
####### ####### ############^^## #^^^^^^^^^^^^^#^^^^^#
################################# ############^^^###^^^^^^^^^^^^^#^^^^^#
############################################^#^^#^^^^^^^^^^^^^^^^#^^^^^#
#####################################^^^^^^^^#^^#########^^^#######^^^^#####
####################################^^^^^^^^^##^^^^^^^^^##^^#^^^^^^^^^^^^^^##
####################################^^^^^^^^^^###^^^^^^^^#^^#^^^^^^^^^^^^^^^##
######################### ##########^^^^^####^^##^^^^^^^^#^^#^^^^^^^^^^^^^^^##
####################################^########^^#^#########^^######^^^^^######
#############################################^^#^#^^^^^^^^^^^^^^^#^^^^^#
##############################################^#^#^^^^^^^^^^^^^^^#^^^^^#
##############################################^#^#^^^^^^^^^^^^^^^#^^^^^#
##################################^^^^^^^^^^#^#^^^^^^^^^^^^^^^#^^^^^#
############################################^^^#^##^^^^^^^^^^^^^^#^^^^^#
##############################################^#^^^###^^^^^^^^^^^#^^^^^#
#################################################^^^^#^^^^^^^^^^^#^^^^^#
###############################################^######^^^^^^^^^^^#^^^^^#
###################### ###### ##############^^^^^^^^^^^########^^^^^#
###################### ###### ##############^^##^^^^^^^# #^^^^^^#
###################### ###### ##################^^^^^^^# #^^^^^^#
############## ############### ######^^# ########
############## ############### ###
#############
MEANS QUALITY

=======================================================
= Parichay (1972) =
=======================================================

|##############################################################################|
| |
|GENERAL INFORMATION |
|=================== |
|Format : AVI |
|Format/Info : Audio Video Interleave |
|Format profile : OpenDML |
|File size : 701 MiB |
|Duration : 2h 17mn |
|Overall bit rate : 711 Kbps |
|Language : Hindi Source: DVD |
|SUBTITLE : English |
|GENRE : Drama | Family | Musical |
|IMDB LINK : http://www.imdb.com/title/tt0216067/ |
|IMDB RATING : 7.8/10 |
|RIPPER : SMEET |
|##############################################################################|

|##############################################################################|
| |
|Video |
|Format : MPEG-4 Visual |
|Format settings, Matrix : Custom |
|Codec ID : XVID |
|Codec ID/Hint : XviD |
|Duration : 2h 17mns |
|Width : 576 pixels |
|Height : 352 pixels |
|Display aspect ratio : 1.636 |
|Frame rate : 29.970 fps |
|Resolution : 24 bits |
|Colorimetry : 4:2:0 |
|Scan type : Progressive |
|Bits/(Pixel*Frame) : 0.106 |
|Stream size : 634 MiB (90%) |
|Writing library : XviD 1.2.1 (UTC 2008-12-04) rter. |
|##############################################################################|
|Audio |
|Format : MPEG Audio |
|Format version : Version 2 |
|Format profile : Layer 3 |
|Codec ID : 55 |
|Codec ID/Hint : MP3 |
|Duration : 2h 17mn |
|Bit rate mode : Constant |
|Bit rate : 64.0 Kbps |
|Channel(s) : 2 channels |
|Sampling rate : 24.0 KHz |
|Resolution : 16 bits |
|Stream size : 63.1 MiB (9%) |
|Alignment : Aligned on interleaves |
|Interleave, duration : 952 ms (28.54 video frames) |
|Interleave, preload duration : 216 ms |
|Title : par~smeet T80 3_2ch 384Kbps DELAY 0msmsss0m|
|Writing library : LAME3.98r |
|Encoding settings : -m j -V 4 -q 2 -lowpass 11 -b 64 |
| |

|##############################################################################|
www.AhaShare.Com

Sharing Widget


Download torrent
707.26 MB
seeders:0
leechers:0
Parichay(1972)Hindi-DVDRip-XviD ~ Smeet

Trackers

tracker name Status checked seeders leechers downloads
udp://tracker.openbittorrent.com:80/announce
outdated 21 Jan 2015 - - -
udp://tracker.publicbt.com:80/announce
outdated 21 Jan 2015 - - -
udp://tracker.istole.it:80/announce
outdated 21 Jan 2015 - - -
udp://tracker.1337x.org:80/announce
outdated 05 Aug 2013 - - -
http://exodus.desync.com:6969/announce
blocked 05 Aug 2013 - - -
udp://fr33domtracker.h33t.com:3310/announce
deleted 05 Aug 2013 - - -
udp://tracker.ccc.de:80/announce
deleted 05 Aug 2013 - - -
ĀµTorrent compatible trackers list

Locations

name
ExtraTorrent
isoHunt
ThePirateBay
Torrentzap
TorrentPortal
Torrent hash: 9170a81a3699f3d05ce1bb76a405200f45afc6ad

All Comments

audio
9/10
video
9/10
please, leave only comments related to that torrent
or sign-in
0
anonymous • 14 March 2011, 11:32 Show comment
thanks a lot
0
TheExorcist788 • 06 August 2010, 12:55
torrent downloaded
Show comment
audio: 9video: 9
good print

User Opinions

Report a bug