Paranormal Activity 4 2012 CAM XViD - INSPiRAL

seeders: 1
leechers: 0
Added on Oct 29, 2012 in Movies
Torrent verified. Downloaded 10 times.

Summary:
It has been five years since the disappearance of Katie and Hunter, and a suburban family witness strange events in their neighborhood when a woman and a mysterious child move in.
Written by MoonChild12.84K
report summary
Paranormal Activity 4 2012 CAM XViD - INSPiRAL (Size: 1.4 GB)
  PA4.rar 14.31 MB
  PA4.rar 14.31 MB
  PA4.rar 14.31 MB
  PA4.rar 14.31 MB
  PA4.rar 14.31 MB
  PA4.rar 14.31 MB
  PA4.rar 14.31 MB
  PA4.rar 14.31 MB
  PA4.rar 14.31 MB
  PA4.rar 14.31 MB
  PA4.rar 14.31 MB
  PA4.rar 14.31 MB
  PA4.rar 14.31 MB
  PA4.rar 14.31 MB
  PA4.rar 14.31 MB
  PA4.rar 14.31 MB
  PA4.rar 14.31 MB
  PA4.rar 14.31 MB
  PA4.rar 14.31 MB
  PA4.rar 14.31 MB
  PA4.rar 14.31 MB
  PA4.rar 14.31 MB
  PA4.rar 14.31 MB
  PA4.rar 14.31 MB
  PA4.rar 14.31 MB
  PA4.rar 14.31 MB
  PA4.rar 14.31 MB
  PA4.rar 14.31 MB
  PA4.rar 14.31 MB
  PA4.rar 14.31 MB
  And 73 files more

Description

.
..............................Site Info...........................

- http://www.scenetime.com *_*

Scenetime .Always on time . friendly online private torrent community ..

We care to share . Join us on http://www.scenetime.com

Be the first to get new release at http://www.scenetime.com

Seed back for speed


...................................NFO:.................................................image


TITLE:

Paranormal Activity 4 2012 CAM XViD - INSPiRAL

IMDB:

http://www.imdb.com/title/tt2109184/


SOURCES:

VIDEO - HP THANKS
AUDIO - HP THANKS
SUBS - None Add

STATS:

Video
ID : 0
Format : MPEG-4 Visual
Format profile : Advanced Simple@L5
Format settings, BVOP : 2
Format settings, QPel : No
Format settings, GMC : No warppoints
Format settings, Matrix : Default (MPEG)
Muxing mode : Packed bitstream
Codec ID : XVID
Codec ID/Hint : XviD
Duration : 1h 22mn
Bit rate : 2 253 Kbps
Width : 624 pixels
Height : 336 pixels
Display aspect ratio : 1.857
Frame rate : 29.970 fps
Color space : YUV
Chroma subsampling : 4:2:0
Bit depth : 8 bits
Scan type : Progressive
Compression mode : Lossy
Bits/(Pixel*Frame) : 0.359
Stream size : 1.30 GiB (94%)
Writing library : XviD 64

Audio
ID : 1
Format : MPEG Audio
Format version : Version 1
Format profile : Layer 3
Mode : Joint stereo
Mode extension : MS Stereo
Codec ID : 55
Codec ID/Hint : MP3
Duration : 1h 22mn
Bit rate mode : Constant
Bit rate : 128 Kbps
Channel(s) : 2 channels
Sampling rate : 48.0 KHz
Compression mode : Lossy
Stream size : 75.6 MiB (5%)
Alignment : Split accross interleaves
Interleave, duration : 33 ms (1.00 video frame)
Interleave, preload duration : 500 ms




NOTES:

Nice video by HP ...got the normal issues of borders,wrong AR,glare and colours off,quite pinky
on this one.....also a small resize,BUT with some TLC ;-)
Audio was nice,little low and some hiss on a few channels ...but for cam audio very nice.

WORKDONE:

Cropped all the borders and then resize to fix AR and also upscaled it ...like normal this makes all faults
stand out even more,so to correct them i had to use a HQ smoother on high settings,tweaked the rgb colours lowering
the pink hue ALOT and balancing out the rest.Also slight tweak on contrast and brightness,lowered the intes to dull
the glares before finally adding some sharpness back to it.
Audio stripped,dropped in AA and gave it a little boost on the DB's and also tweaked the eq bands to lower the hiss,before
resaving as mp3 and resyncing to the encode.

Enjoy folks.


SCREENS:

image
image
image
image
image
image
image
image

GREETZ:

Past,Present,future and thanks Meggafast

image

Related Torrents

torrent name size files age seed leech

Sharing Widget


Download torrent
1.4 GB
seeders:1
leechers:0
Paranormal Activity 4 2012 CAM XViD - INSPiRAL

Trackers

tracker name Status checked seeders leechers downloads
udp://tracker.istole.it:80/announce
outdated 05 Dec 2012 - - -
udp://tracker.publicbt.com:80/announce
outdated 05 Dec 2012 - - -
udp://tracker.openbittorrent.com:80/announce
outdated 05 Dec 2012 - - -
udp://fr33domtracker.h33t.com:3310/announce
deleted 05 Dec 2012 - - -
ĀµTorrent compatible trackers list

Locations

name
ThePirateBay
Torrent hash: 850435F770912732F4940472DCE402F707CC5AF9

All Comments

audio
0/10
video
0/10
please, leave only comments related to that torrent
or sign-in
Report a bug