Paglu 2 (2012) - 1CD - DVDRip - (Xvid-MP3) - E.Sub

seeders: 2
leechers: 3
Added on Nov 23, 2012 by Telly_20155440 in Movies > Asian
Torrent verified. Downloaded 158 times.

Summary:
The trio of Dharam (Dharmendra), Paramveer (Sunny Deol) and Gajodhar (Bobby Deol) reunite, this time in the UK. Paramveer opens up the "Yamla Pagla Deewana" club and re-encounters a visit with Dharam and Gajodhar, after their last visit to Canada. Now, the trio are back with double the fun, double the action, with the presence of a fool (Johnny Lever), and double the romance, with the Suman (Neha Sharma), and Paramveer's love Reet (Kristina Akheeva).
Written by TheStrength54.42K
report summary
Paglu 2 (2012) - 1CD - DVDRip - (Xvid-MP3) - E.Sub (Size: 709.65 MB)
  Paglu 2 (2012) - 1CD - DVDRip - (Xvid-MP3).avi 692.77 MB
  sample.avi 5.13 MB
  t.jpg 184.27 KB
  ScreenShoots
  Sub

Description

[SIZE=5] Paglu 2 (2012) - 1CD - DVDRip - (Xvid-MP3) - E.Sub

image
image

[SIZE=5]Genre: Action, Drama, Romance
Release: Aug 31, 2012


[SIZE=4]Dev (Dev) is a high school drop out from and a worthless village lad. He is hell bent on getting married. But the girl he wants to marry rejects him stating that he doesn’t have college education. Dev, who is clever and street-smart decides to go to Kolkata for further education. While travelling in the train, he bashes up a bunch of rowdies teasing college girls. At the college in Kolkata, he meets Riya (Koel Mullick) and falls in love with her. A city gangster, Rudra, (Tota Roy Chowdhury) is in love with her and blackmails her to marry him. He beats anyone moving closely with Riya. Meanwhile, henchmen of the dreaded chieftain Krishna Ghoshal (Rajatava Dutta), from Dubai, are looking for Dev in the city.
How Dev comes out of this quagmire to rescue Riya from the clutches of villains and what happens to their love story are revealed in the climax interspersed with twists and turns.

image
Dev as Dev (Paglu)
Koel Mullick as Riya
Tota Roy Chowdhury as Rudra
Rajatava Dutta as Krishna Ghoshal
Rimjhim Mitra as Kabita Ghoshal, Krishna's daughter
Biswajit Dutta as Dev's father
Biswanath Bose as Dev's friend.

image
Format : AVI
Format/Info : Audio Video Interleave
File size : 693 MiB
Duration : 2h 27mn
Overall bit rate : 656 Kbps

Video #0
ID : 0
Format : MPEG-4 Visual
Format profile : Advanced Simple@L5
Format settings, BVOP : 2
Format settings, QPel : No
Format settings, GMC : No warppoints
Format settings, Matrix : Default (H.263)
Codec ID : XVID
Codec ID/Hint : XviD
Duration : 2h 27mn
Bit rate : 602 Kbps
Width : 640 pixels
Height : 272 pixels
Display aspect ratio : 2.35:1
Frame rate : 23.976 fps
Color space : YUV
Chroma subsampling : 4:2:0
Bit depth : 8 bits
Scan type : Progressive
Compression mode : Lossy
Bits/(Pixel*Frame) : 0.144
Stream size : 636 MiB (92%)
image
Audio #1
ID : 1
Format : MPEG Audio
Format version : Version 1
Format profile : Layer 3
Mode : Joint stereo
Mode extension : MS Stereo
Codec ID : 55
Codec ID/Hint : MP3
Duration : 2h 27mn
Bit rate mode : Constant
Bit rate : 48.0 Kbps
Channel(s) : 2 channels
Sampling rate : 44.1 KHz
Compression mode : Lossy
Stream size : 50.7 MiB (7%)

image
image
image
image
image
image
image
image
image
image

image

Sample

image


[SIZE=5]Slow Seeding

[SIZE=4][COLOR=#8b0000]Need reseeding on any of my torrents , just start leeching and PM me..

image

image


image

Related Torrents

torrent name size files age seed leech

Sharing Widget


Download torrent
709.65 MB
seeders:2
leechers:3
Paglu 2 (2012) - 1CD - DVDRip - (Xvid-MP3) - E.Sub

Trackers

tracker name Status checked seeders leechers downloads
udp://tracker.openbittorrent.com:80/announce
outdated 21 Jul 2013 - - -
udp://tracker.publicbt.com:80/announce
outdated 21 Jul 2013 - - -
udp://tracker.istole.it:80/announce
outdated 21 Jul 2013 - - -
udp://tracker.1337x.org:80/announce
outdated 21 Jul 2013 - - -
http://exodus.desync.com:6969/announce
blocked 21 Jul 2013 - - -
udp://fr33domtracker.h33t.com:3310/announce
deleted 21 Jul 2013 - - -
µTorrent compatible trackers list

Locations

name
KickassTorrents
Torrent hash: 9DFE08FF879FDD21D3C6DEA053F00BC139C0F68B

All Comments

audio
1/10
video
1/10
please, leave only comments related to that torrent
or sign-in
0
anonymous • 27 November 2012, 15:05 Show comment
com on seed fuck faces!!!!and this is a dvd rip so fellas u doenload dis not the vcd rips !!! and seed dis!
0
anonymous • 25 November 2012, 03:03 Show comment
audio: 1video: 1
Good quality but movie is awfull

User Opinions

Report a bug