Pacquiao vs Bradley 2012 480p HDTV x264 AC3-ADTRG mkv

seeders: 0
leechers: 0
Added on Jun 10, 2012 by jayrose081578 in TV
Downloaded 0 times.

Pacquiao vs Bradley 2012 480p HDTV x264 AC3-ADTRG mkv (Size: 716.5 MB)
  Pacquiao.vs.Bradley.2012.480p.HDTV.x264.AC3-ADTRG.mkv 716.5 MB

Description

Description:

Pacquiao.vs.Bradley.2012.480p.HDTV.x264.AC3-ADTRG

Boxing


Source - superseed Thanks


Complete name : Pacquiao.vs.Bradley.2012.480p.HDTV.x264.AC3-ADTRG.mkv
Format : Matroska
Format version : Version 2
File size : 716 MiB
Duration : 59mn 31s
Overall bit rate : 1 683 Kbps
Movie name : Pacquiao.vs.Bradley.2012.480p.HDTV.x264.AC3-ADTRG
Encoded date : UTC 2012-06-10 07:14:42
Writing application : mkvmerge v5.4.0 ('Piper') built on Mar 10 2012 13:34:39
Writing library : libebml v1.2.3 + libmatroska v1.3.0

Video
ID : 1
Format : AVC
Format/Info : Advanced Video Codec
Format profile : High@L4.1
Bit rate : 1 500 Kbps
Width : 852 pixels
Height : 478 pixels
Display aspect ratio : 16:9
Frame rate : 25.000 fps
Stream size : 620 MiB (87%)

Audio
ID : 2
Format : AC-3
Bit rate : 192 Kbps
Channel(s) : 2 channels
Channel positions : Front: L R
Sampling rate : 48.0 KHz
Stream size : 81.7 MiB (11%)
Language : English


Encoder - LiMeY
Good things come in small packages, So feel the wrath of my compression. Thanks the upload.

Related Torrents

torrent name size files age seed leech

Sharing Widget


Download torrent
716.5 MB
seeders:0
leechers:0
Pacquiao vs Bradley 2012 480p HDTV x264 AC3-ADTRG mkv

Trackers

tracker name Status checked seeders leechers downloads
udp://tracker.publicbt.com:80/announce
outdated 01 Dec 2013 - - -
udp://tracker.istole.it:80/announce
outdated 01 Dec 2013 - - -
http://tracker.ccc.de/announce
outdated 16 Oct 2012 - - -
udp://tracker.1337x.org:80/announce
outdated 10 Jun 2012 - - -
http://tracker.istole.it/announce
outdated 10 Jun 2012 - - -
http://exodus.desync.com:6969/announce
blocked 23 Aug 2012 - - -
http://tracker.publicbt.com/announce
deleted 11 Mar 2013 - - -
udp://fr33domtracker.h33t.com:3310/announce
deleted 10 Jun 2012 - - -
udp://tracker.ccc.de:80/announce
deleted 10 Jun 2012 - - -
http://www.sumotracker.com/announce
error 10 Jun 2012 - - -
ĀµTorrent compatible trackers list

Locations

name
KickassTorrents
Torrent hash: 9CCAEBF444A5098B09531673DB59943C1C2EC763

All Comments

audio
0/10
video
0/10
please, leave only comments related to that torrent
or sign-in
0
anonymous • 10 June 2012, 14:43 Show comment
Bradley won?!! WTF

User Opinions

Report a bug