Mission Impossible 4 Ghost Protocol {2011} DVDRip XviD-MAXSPEED

seeders: 0
leechers: 0
Added on Apr 1, 2012 by MusiK_KinG19.12K in Movies
Torrent verified. Downloaded 0 times.

Summary:
The IMF is shut down when it's implicated in the bombing of the Kremlin, causing Ethan Hunt and his new team to go rogue to clear their organization's name.
Written by thePiratePimp60.81K
report summary
Mission Impossible 4 Ghost Protocol {2011} DVDRip XviD-MAXSPEED (Size: 1.3 GB)
  Mission Impossible 4 Ghost Protocol (2011) DVDRip XviD-MAXSPEED www.torentz.3xforum.ro.avi 1.3 GB
  sample.avi 3.18 MB
  screencaps.jpeg 528.17 KB
  Torrent downloaded from Demonoid.me.txt 46 bytes
  Torrent downloaded from extratorrent.com.txt 40 bytes
  torrent downloaded from H33T.com.txt 32 bytes
  Torrent downloaded from Rarbg.com.txt 33 bytes

Description

image
Screens:

http://www.postimg.com/image/64000/photo-63847.jpg
http://www.postimg.com/image/64000/photo-63848.jpg
http://www.postimg.com/image/64000/photo-63849.jpg
http://www.postimg.com/image/64000/photo-63850.jpg

ScreenCaps:

http://www.postimg.com/image/64000/photo-63851.jpg

Mission Impossible 4 Ghost Protocol (2011) DVDRip XviD-MAX
Format : AVI
Format/Info : Audio Video Interleave
Format profile : OpenDML
File size : 1.30 GiB
Duration : 2h 12mn
Overall bit rate : 1 398 Kbps
Writing application : VirtualDubMod 1.5.10.2 (build 2542/release)
Writing library : VirtualDubMod build 2542/release
Original source form : MAX TORRENTZ
Copyright : SIGISMUNT

Video
ID : 0
Format : MPEG-4 Visual
Format profile : AdvancedSimple@L5
Format settings, BVOP : Yes
Format settings, QPel : No
Format settings, GMC : No warppoints
Format settings, Matrix : Default (MPEG)
Codec ID : XVID
Codec ID/Hint : XviD
Duration : 2h 12mn
Bit rate : 1 009 Kbps
Width : 640 pixels
Height : 272 pixels
Display aspect ratio : 2.35:1
Frame rate : 23.976 fps
Resolution : 24 bits
Colorimetry : 4:2:0
Scan type : Progressive
Bits/(Pixel*Frame) : 0.242
Stream size : 959 MiB (72%)
Writing library : XviD 64

Audio
ID : 1
Format : AC-3
Format/Info : Audio Coding 3
Codec ID : 2000
Duration : 2h 12mn
Bit rate mode : Constant
Bit rate : 384 Kbps
Channel(s) : 6 channels
Channel positions : Front: L C R, Surround: L R, LFE
Sampling rate : 48.0 KHz
Stream size : 365 MiB (27%)
Alignment : Aligned on interleaves
Interleave, duration : 64 ms (1.53 video frames)
Interleave, preload duration : 192 ms

Source: DVD (perfect a/v/sync quality,sample included,hardcoded english
subs for few original foreign parts)



---------------------------------------------------------------

!!! ENJOY & SEED 30mb UPLOAD SPEED !!!

---------------------------------------------------------------

Related Torrents

torrent name size files age seed leech

Sharing Widget


Download torrent
1.3 GB
seeders:0
leechers:0
Mission Impossible 4 Ghost Protocol {2011} DVDRip XviD-MAXSPEED

Trackers

tracker name Status checked seeders leechers downloads
http://pow7.com/announce
active 30 Mar 2015 0 0 0
udp://tracker.istole.it:80/announce
outdated 03 Feb 2013 - - -
udp://tracker.publicbt.com:80/announce
outdated 03 Feb 2013 - - -
udp://tracker.openbittorrent.com:80/announce
outdated 03 Feb 2013 - - -
http://exodus.desync.com:6969/announce
blocked 03 Feb 2013 - - -
http://fr33dom.h33t.com:3310/announce
deleted 17 May 2013 - - -
udp://fr33domtracker.h33t.com:3310/announce
deleted 03 Feb 2013 - - -
ĀµTorrent compatible trackers list

Locations

name
KickassTorrents
Torrent hash: B0EF9D0CEC0592FCFF5E043DD956A606B83D1E5A

All Comments

audio
10/10
video
10/10
please, leave only comments related to that torrent
or sign-in
0
AstralWarrior620 • 09 July 2012, 11:51
torrent downloaded
Show comment
audio: 10video: 10
0
anonymous • 13 April 2012, 15:04 Show comment
I've had the same problem with other MAXSPEED downloads
0
JohnThompson1605 • 10 April 2012, 18:22
torrent downloaded
Show comment
audio: 10video: 10
No problems with A&V. Problem with the fact that the movie didn't run it's full length. Same problem as with a different MAXSPEED download. Will therefore download from another uploader.

User Opinions

Report a bug