Mac And Devin Go To Highschool 2012 BDRip XviD AC3-XTREME

seeders: 6
leechers: 2
Added on Jun 19, 2012 by extremerules20.24K in Movies
Torrent verified by LRS23.52K, 2 years and 8 months ago. Downloaded 17 times.

Mac And Devin Go To Highschool 2012 BDRip XviD AC3-XTREME (Size: 1.4 GB)
  Readme.txt 56 bytes
  Torrent downloaded from AhaShare.com.txt 58 bytes
  sample.avi 19.54 MB
  Mac.And.Devin.Go.To.Highschool.2012.BDRip..XviD.AC3-XTREME.avi 1.38 GB

Description

image

IMDB:
http://www.imdb.com/title/tt1870425/

PLOT INFO:
A comedy that follows two high school students -- one overachiever struggling to write his valedictorian speech, the other a senior now going on his 15th year of school.


General
Complete name : /mnt/sdc1/rahulraj/files/Mac.And.Devin.Go.To.Highschool.2012.BDRip..XviD.AC3-XTREME/Mac.And.Devin.Go.To.Highschool.2012.BDRip..XviD.AC3-XTREME.avi
Format : AVI
Format/Info : Audio Video Interleave
File size : 1.38 GiB
Duration : 1h 15mn
Overall bit rate : 2 612 Kbps

Video
ID : 0
Format : MPEG-4 Visual
Format profile : Advanced Simple@L5
Format settings, BVOP : 1
Format settings, QPel : No
Format settings, GMC : No warppoints
Format settings, Matrix : Default (H.263)
Codec ID : XVID
Codec ID/Hint : XviD
Duration : 1h 15mn
Bit rate : 2 221 Kbps
Width : 720 pixels
Height : 400 pixels
Display aspect ratio : 16:9
Frame rate : 23.976 fps
Color space : YUV
Chroma subsampling : 4:2:0
Bit depth : 8 bits
Scan type : Progressive
Compression mode : Lossy
Bits/(Pixel*Frame) : 0.322
Stream size : 1.17 GiB (85%)
Writing library : XviD 1.2.1 (UTC 2008-12-04)

Audio
ID : 1
Format : AC-3
Format/Info : Audio Coding 3
Mode extension : CM (complete main)
Codec ID : 2000
Duration : 1h 15mn
Bit rate mode : Constant
Bit rate : 384 Kbps
Channel(s) : 6 channels
Channel positions : Front: L C R, Side: L R, LFE
Sampling rate : 48.0 KHz
Bit depth : 16 bits
Compression mode : Lossy
Stream size : 208 MiB (15%)
Alignment : Aligned on interleaves
Interleave, duration : 64 ms (1.53 video frames)
Interleave, preload duration : 192 ms
Title : 00001.track_4352_new

SCREENS:
image
image
image
image
image

Sharing Widget


Download torrent
1.4 GB
seeders:6
leechers:2
Mac And Devin Go To Highschool 2012 BDRip XviD AC3-XTREME

Trackers

tracker name Status checked seeders leechers downloads
udp://9.rarbg.com:2710/announce
outdated 19 Jun 2012 - - -
http://tracker.pow7.com/announce
outdated 19 Jun 2012 - - -
udp://tracker.1337x.org:80/announce
outdated 19 Jun 2012 - - -
udp://tracker.istole.it:80/announce
outdated 19 Jun 2012 - - -
udp://tracker.publicbt.com:80/announce
outdated 19 Jun 2012 - - -
http://tracker.ex.ua/announce
outdated 19 Jun 2012 - - -
http://tracker.istole.it/announce
outdated 19 Jun 2012 - - -
http://tracker.publicbt.com/announce
deleted 11 Mar 2013 - - -
udp://fr33domtracker.h33t.com:3310/announce
deleted 19 Jun 2012 - - -
udp://10.rarbg.com:80/announce
private 19 Jun 2012 0 0 0
ĀµTorrent compatible trackers list

Locations

name
KickassTorrents
Torrent hash: C19620CDC40E7A15C824DDA543983DE6CF2C089F

All Comments

audio
9/10
video
9/10
please, leave only comments related to that torrent
or sign-in
0
isla2123829 • 19 July 2012, 15:43
torrent downloaded
Show comment
audio: 9video: 9
good

User Opinions

Report a bug