Lockout UNRATED 2012 BRRip 720p x264 Feel-Free

seeders: 0
leechers: 3
Added on Jun 30, 2012 by feel-free20.27K in Movies > Highres Movies
Torrent verified. Downloaded 10 times.

  • add Lockout to bookmarks
  • Release date: 24 February 2012
  • Writers: Stephen St. Leger (screenplay), James Mather (screenplay), Luc Besson (screenplay), Luc Besson (original idea)
  • Language: English
Summary:
A man wrongly convicted of conspiracy to commit espionage against the U.S. is offered his freedom if he can rescue the president's daughter from an outer space prison taken over by violent inmates.
Written by Firestorm53.34K
report summary
Lockout UNRATED 2012 BRRip 720p x264 Feel-Free (Size: 2.27 GB)
  82d316b7db.jpg 147.08 KB
  Lockout.UNRATED.1080p.BluRay.X264-BLOW.mp4 2.26 GB
  Lockout.UNRATED.2012.BRRip.720p.x264.Feel-Free.nfo 3.36 KB
  vlcsnap-2012-06-30-08h03m27s34.png 526.42 KB
  vlcsnap-2012-06-30-08h03m34s107.png 656.63 KB
  vlcsnap-2012-06-30-08h03m40s172.png 459.78 KB
  vlcsnap-2012-06-30-08h04m20s60.png 790.59 KB
  vlcsnap-2012-06-30-08h04m36s223.png 321.9 KB
  vlcsnap-2012-06-30-08h04m45s47.png 621.04 KB
  vlcsnap-2012-06-30-08h05m19s139.png 610.95 KB

Description

image
image



Genre:Thriller | Action | Sci-Fi
Language:English
IMDb:http://www.imdb.com/title/tt1592525/
Source:UNRATED.1080p.BluRay.X264-BLOW Thanks!
Encoder:Tony

Format : MPEG-4
Format profile : Base Media
Codec ID : isom
File size : 2.26 GiB
Duration : 1h 35mn
Overall bit rate mode : Variable
Overall bit rate : 3 399 Kbps

Video
ID : 1
Format : AVC
Format/Info : Advanced Video Codec
Format profile : High@L4.1
Format settings, CABAC : Yes
Format settings, ReFrames : 3 frames
Codec ID : avc1
Codec ID/Info : Advanced Video Coding
Duration : 1h 35mn
Bit rate : 3 000 Kbps
Maximum bit rate : 14.9 Mbps
Width : 1 280 pixels
Height : 536 pixels
Display aspect ratio : 2.40:1
Frame rate mode : Constant
Frame rate : 23.976 fps
Color space : YUV
Chroma subsampling : 4:2:0
Bit depth : 8 bits
Scan type : Progressive
Bits/(Pixel*Frame) : 0.182
Stream size : 1.96 GiB (87%)
Writing library : x264 core 75 r1251kMod e553a4c

Audio
ID : 2
Format : AAC
Format/Info : Advanced Audio Codec
Format profile : LC
Codec ID : 40
Duration : 1h 35mn
Bit rate mode : Variable
Bit rate : 447 Kbps
Maximum bit rate : 516 Kbps
Channel(s) : 6 channels
Channel positions : Front: L C R, Side: L R, LFE
Sampling rate : 48.0 KHz
Compression mode : Lossy
Stream size : 305 MiB (13%)


Plot:
A man wrongly convicted of conspiracy to commit espionage against the U.S. is offered his freedom if he can rescue the president's daughter from an outer space prison taken over by violent inmates.

TRAILER:
[embed=youtube]http://www.youtube.com/watch?v=zLTOzu8N1Pg&feature=player_embedded[/embed]

image
image
image
image
image
image
image


Greets:
CRYS,INSPiRAL,IMAGINE,LKRG,ADTRG,FXG,3Li,FLAWL3SS,CrEwSaDe,TA,iLLUSiON,EMBER,HOPE,GooN,BBnRG,NOGRP,ETRG,BHRG,iLLUMiNATi,MiSTERE.ViSiON,DTRG SAFCuk009,LU,TheFalcon007,MYSTiC,PrisM,Noir,WBZ,LAP,Rx,Kingdom,SAFCuk009+Fabreezy,HDLiTE,TWiZTED,ETRG.ELEKTRI4KA,MAGNAT,CM8
And to all the other p2p grps past and present


Make sure its a real Feel-Free release @ http://extratorrent.com
Thanks to all who promotes release Feel-Free !!!

Related Torrents

torrent name size files age seed leech

Sharing Widget


Download torrent
2.27 GB
seeders:0
leechers:3
Lockout UNRATED 2012 BRRip 720p x264 Feel-Free

Trackers

tracker name Status checked seeders leechers downloads
udp://tracker.publicbt.com:80/announce
outdated 09 Nov 2013 - - -
udp://tracker.openbittorrent.com:80/announce
outdated 09 Nov 2013 - - -
http://pow7.com/announce
outdated 20 Sep 2013 - - -
udp://tracker.1337x.org:80/announce
outdated 20 Sep 2013 - - -
udp://tracker.istole.it:80/announce
outdated 20 Sep 2013 - - -
http://tracker.istole.it/announce
outdated 20 Sep 2013 - - -
http://exodus.desync.com:6969/announce
blocked 20 Sep 2013 - - -
udp://fr33domtracker.h33t.com:3310/announce
deleted 20 Sep 2013 - - -
http://tracker.publicbt.com/announce
deleted 20 Sep 2013 - - -
http://tracker.novalayer.org:6969/announce
pending 20 Sep 2013 0 0 0
ĀµTorrent compatible trackers list

Locations

name
KickassTorrents
Torrent hash: 90CC0ECF62BBC5457E31C2183E3389D3631DCF79

All Comments

audio
9/10
video
9/10
please, leave only comments related to that torrent
or sign-in
0
Aryabangah4148 • 09 January 2013, 21:47
torrent downloaded
Show comment
audio: 10video: 10
Exellent with 6 ch ... thanks.
0
anonymous • 03 December 2012, 17:45 Show comment
thank you
0
ShogunRua470 • 13 August 2012, 14:44
torrent downloaded
Show comment
audio: 10video: 10
0
BJCyber770 • 08 August 2012, 14:36
torrent downloaded
Show comment
good
0
anonymous • 16 July 2012, 08:33 Show comment
does not work on ps3! cinavia protected
0
luthfi5551078 • 12 July 2012, 15:45
torrent downloaded
Show comment
audio: 9video: 9
0
Opsylum9995 • 06 July 2012, 12:26
torrent downloaded
Show comment
audio: 8video: 8
0
miliozzi532 • 05 July 2012, 03:54
torrent downloaded
Show comment
audio: 10video: 10
Great copy, thank you.
0
Gotchinezcki7800 • 02 July 2012, 14:24
torrent downloaded
Show comment
audio: 10video: 10
thx
0
theeyegroup3151 • 01 July 2012, 17:11
torrent downloaded
Show comment
audio: 10video: 10
Excellent Quality, thanks! biggrin
Show More All

User Opinions

Report a bug