Jannat 2 (2012) PDvdRip (Audio Cleaned) [Exclusive]~~~[CooL GuY] {{a2zRG}}

seeders: 0
leechers: 0
Added on May 5, 2012 by a2zRG26.63K in Movies > Bollywood
Torrent verified. Downloaded 0 times.

Jannat 2 (2012) PDvdRip (Audio Cleaned) [Exclusive]~~~[CooL GuY] {{a2zRG}} (Size: 705.13 MB)
  Jannat 2 (2012) PDvdRip (Audio Cleaned) [Exclusive]~~~[CooL GuY] {{a2zRG}}.m4v 705.11 MB
  Cover.jpg 19.82 KB
  Torrent downloaded from extratorrent.com.txt 353 bytes
  If You Like My Work Then Like Me On Facebook.txt 253 bytes
  torrent_downloaded_from_www.digtorrent.org.txt 192 bytes
  AhaShare.com.txt 59 bytes
  Torrent downloaded from Kat.ph.txt 42 bytes
  Torrent downloaded from Silvertorrents.me.txt 41 bytes
  Torrent downloaded from TorrentMafia.in.txt 39 bytes
  Torrent downloaded from 1337x.org.txt 33 bytes
  Please Don't Forget To Say Thanks To.txt 20 bytes
  tracked_by_h33t_com.txt 19 bytes

Description

Jannat 2 (2012) PDvdRip (Audio Cleaned) [Exclusive]~~~[CooL GuY] {{a2zRG}}

image

image

image

http://www.imdb.com/title/tt2319889/


General

Complete name : Jannat 2 (2012) PDvdRip (Audio Cleaned) [Exclusive]~~~[CooL GuY] {{a2zRG}}
Format : MPEG-4
Format profile : Base Media / Version 2
Codec ID : mp42
File size : 705 MiB
Duration : 2h 8mn
Overall bit rate mode : Variable
Overall bit rate : 766 Kbps
Encoded date : UTC 2012-05-05 20:14:20
Tagged date : UTC 2012-05-05 20:49:13
Writing application : HandBrake 0.9.5 2011010300

Video

ID : 1
Format : AVC
Format/Info : Advanced Video Codec
Format profile : Main@L2.1
Format settings, CABAC : Yes
Format settings, ReFrames : 4 frames
Codec ID : avc1
Codec ID/Info : Advanced Video Coding
Duration : 2h 8mn
Bit rate mode : Variable
Bit rate : 602 Kbps
Width : 608 pixels
Height : 256 pixels
Display aspect ratio : 2.40:1
Frame rate mode : Constant
Frame rate : 25.000 fps
Color space : YUV
Chroma subsampling : 4:2:0
Bit depth : 8 bits
Scan type : Progressive
Bits/(Pixel*Frame) : 0.155
Stream size : 554 MiB (79%)
Writing library : x264 core 112


Audio

ID : 2
Format : AAC
Format/Info : Advanced Audio Codec
Format profile : LC
Codec ID : 40
Duration : 2h 8mn
Bit rate mode : Variable
Bit rate : 160 Kbps
Maximum bit rate : 177 Kbps
Channel(s) : 2 channels
Channel positions : Front: L R
Sampling rate : 48.0 KHz
Compression mode : Lossy
Delay relative to video : -80ms
Stream size : 147 MiB (21%)



Facebook :-

If You Like My Post Then Please Visit :-

image


Facebook Page :- http://www.facebook.com/pages/A2Z-RG/278496908901013


Facebook Group :- http://www.facebook.com/groups/403553456329800/


Screen Shots :-

image

image

image

image


image


image

Sharing Widget


Download torrent
705.13 MB
seeders:0
leechers:0
Jannat 2 (2012) PDvdRip (Audio Cleaned) [Exclusive]~~~[CooL GuY] {{a2zRG}}

Trackers

tracker name Status checked seeders leechers downloads
udp://9.rarbg.com:2710/announce
active 30 Mar 2015 0 0 0
udp://tracker.publicbt.com:80/announce
outdated 18 Nov 2013 - - -
udp://tracker.istole.it:80/announce
outdated 18 Nov 2013 - - -
udp://tracker.openbittorrent.com:80/announce
outdated 18 Nov 2013 - - -
http://tracker.istole.it/announce
outdated 26 Oct 2012 - - -
udp://tracker.1337x.org:80/announce
outdated 26 Oct 2012 - - -
http://tracker.ccc.de/announce
outdated 26 Oct 2012 - - -
http://tracker.publicbt.com/announce
deleted 11 Mar 2013 - - -
udp://fr33domtracker.h33t.com:3310/announce
deleted 26 Oct 2012 - - -
udp://tracker.ccc.de:80/announce
deleted 26 Oct 2012 - - -
µTorrent compatible trackers list

Locations

name
KickassTorrents
Torrent hash: 623BFC29AC1D32B484F5590A636EF759DC6BAA68

All Comments

audio
5/10
video
5/10
please, leave only comments related to that torrent
or sign-in
0
AGL78654 • 13 August 2012, 09:02
torrent downloaded
Show comment
audio: 3video: 3
shitting quality
0
anonymous • 10 August 2012, 03:12 Show comment
what the fuck is this,half says good print..the other half says bad print >:(
0
anonymous • 02 July 2012, 16:13 Show comment
audio: 6video: 6
0
anonymous • 29 June 2012, 12:39 Show comment
audio: 10video: 10
0
devil_no_evil915 • 23 June 2012, 06:05
torrent downloaded
Show comment
audio: 5video: 5
good
0
chingu136 • 10 June 2012, 18:12
torrent downloaded
Show comment
audio: 2video: 4
0
anonymous • 01 June 2012, 08:06 Show comment
not a nice print.........bad audio
Show More All

User Opinions

Report a bug