Hush Hush, Sweet Charlotte (1964) Bette Davis Eng

seeders: 0
leechers: 0
Added on Sep 7, 2009 in Movies
Downloaded 0 times.

Summary:
An aging, reclusive southern belle, plagued by a horrifying family secret, descends into madness after the arrival of a lost relative.
Written by Anette14151.84K
report summary
Available in versions: 720pDVDDVDRip
Hush Hush, Sweet Charlotte (1964) Bette Davis Eng (Size: 806.27 MB)
  FAQ README.txt 4.45 KB
  Hush...Hush, Sweet Charlotte (1964) Bette Davis Eng.avi 806.27 MB
  Torrent downloaded from Demonoid.com.txt 47 bytes

Description




An unusually long pre-credits sequence establishes the roots of faded Southern belle Charlotte's (Bette Davis) insanity;
she'd been witness to the dismemberment murder of her fiance (Bruce Dern) and the suicide of the murderer, her own
father (Victor Buono). Years later, Charlotte remains a recluse in her decaying southern mansion, zealously guarding the
secret of her father's guilt; she is cared for by her slatternly housekeeper (Agnes Moorehead). When her house is
targeted for demolition, Charlotte fears that this will uncover her lover's body parts and thus confirm that her father
was a murderer. She desperately summons her seemingly sweet-tempered cousin Miriam (Olivia De Havilland) to help her
fight off the house's destruction. Miriam brings along the family doctor (Joseph Cotten) to calm Charlotte's frayed
nerves. When Charlotte begins to be plagued by horrific visions of the homicide/suicide of so long ago, it appears that
she has gone completely insane. But soon we learn who is behind these delusions...and why. Hush Hush Sweet Charlotte was
intended by director Robert Aldrich as a follow-up to the successful Joan Crawford/Bette Davis horror piece Whatever
Happened to Baby Jane (1962). Ms. Crawford was originally slated to play Miriam, but became seriously ill shortly before
filming started. Davis, who disliked Crawford intensely, suggested that the role of Miriam be filled by her best friend,
De Havilland. On the first day of shooting, Davis and DeHavilland pulled a "Ding Dong the Witch is Dead"
routine by toasting one another with Coca-Cola--a catty observation of the fact that Joan Crawford's husband was an
executive with the Pepsi Cola company!


http://www.imdb.com/title/tt0058213/

Subs:




http://www.opensubtitles.org...languageid-all/idmovie-14749

Awards:

Nominated for 7 Oscars. Another 5 wins

Director:

Robert Aldrich



Bette Davis ... Charlotte
Olivia de Havilland ... Miriam (as Olivia deHavilland)

Joseph Cotten ... Drew
Agnes Moorehead ... Velma

Cecil Kellaway ... Harry



Video

Format : MPEG-4 Visual

Format profile : Streaming Video@L1

Format settings, BVOP : Yes

Format settings, QPel : No

Format settings, GMC : No warppoints

Format settings, Matrix : Custom

Codec ID : XVID

Codec ID/Hint : XviD

Duration : 2h 12mn

Bit rate : 782 Kbps

Width : 640 pixels

Height : 480 pixels

Display aspect ratio : 4/3

Frame rate : 23.976 fps

Resolution : 24 bits

Colorimetry : 4:2:0

Scan type : Progressive

Bits/(Pixel*Frame) : 0.106

Stream size : 743 MiB (92%)

Writing library : XviD 50

Audio

Format : MPEG Audio

Format version : Version 1

Format profile : Layer 3

Codec ID : 55

Codec ID/Hint : MP3

Duration : 2h 12mn

Bit rate mode : Variable

Bit rate : 60.0 Kbps

Channel(s) : 1 channel

Sampling rate : 48.0 KHz

Resolution : 16 bits

Stream size : 56.9 MiB (7%)

Alignment : Split accross interleaves

Interleave, duration : 83 ms (2.00 video frames)

Interleave, preload duration : 500 ms

Writing library : LAME3.90

Related Torrents

torrent name size files age seed leech

Sharing Widget


Download torrent
806.27 MB
seeders:0
leechers:0
Hush Hush, Sweet Charlotte (1964) Bette Davis Eng

Trackers

tracker name Status checked seeders leechers downloads
udp://tracker.openbittorrent.com:80/announce
outdated 14 Oct 2014 - - -
udp://tracker.publicbt.com:80/announce
outdated 14 Oct 2014 - - -
http://tracker.openbittorrent.com/announce
outdated 02 Mar 2013 - - -
http://tracker.publicbt.com/announce
deleted 11 Mar 2013 - - -
µTorrent compatible trackers list

Locations

name
Torrentzap
Torrent hash: 951ec76935e81098d0c0b14bfc89e81d1ad8f86f

All Comments

audio
8/10
video
8/10
please, leave only comments related to that torrent
or sign-in
0
anonymous • 26 June 2013, 13:23 Show comment
audio: 8video: 9
As others have said, there is a minor audio sync problem. You can correct the problem by using a program like YAAI. Or, if watching on computer, players like VLC can fix synchronization issues on the fly.
0
malteseme125 • 18 April 2011, 03:29
torrent downloaded
Show comment
audio: 9video: 9
ty uppy!
0
hentai_priest580 • 18 November 2010, 19:38
torrent downloaded
Show comment
audio: 7video: 7
Audio/video unsynchronized, yet watchable.
0
susio562 • 13 October 2009, 03:36
torrent downloaded
Show comment
Audio is out of sync but watchable if you can ignore it

User Opinions

lculver19214774, Annagp33871, ancianne1565, hentai_priest580, susio562, Guinness213402, ato8158, xxxskfxxx156, malteseme125, kestrelmc76 ... And 12 more
magicman822948, weeezal24, biyolojinet16, inti594
Report a bug