Hollywood Sex Wars 2011 DVDRiP XViD-OCW

seeders: 0
leechers: 0
Added on Jan 3, 2012 by legend65.24K in Movies
Torrent verified. Downloaded 0 times.

Summary:
Max (Dominique Purdy), Aaron (Richard Blair) and Glen (Nicholas Cooper) have a track record littered with strike-outs and misfit hook-ups. The boys embark on a mission to up their hot babe batting average. They meet Hollywood Casanova Johnny Eyelash (Mario Diaz) who teaches these boys the game of scoring A-list arm candy. But there is one problem, the girls are organized, cunning and have an agenda of their own. Its not long before the girls, led by Big Wendy (Jenae Alt) and Little Wendy (Eli Jane) pick up on Johnny's tactics and Hollywood becomes one big booby trap.
Written by KAT_FAIRY4405
report summary
Available in versions: 1080p720pDVDRip
Hollywood Sex Wars 2011 DVDRiP XViD-OCW (Size: 1.01 GB)
  Hollywood.Sex.Wars.2011.DVDRip.XviD-OCW.avi 1.01 GB
  Torrent downloaded from extratorrent.com.txt 353 bytes

Description


image
Genre : Comedy
Plot : Max (Dominique Purdy), Aaron (Richard Blair) and Glen (Nicholas Cooper) have a track record littered with strike-outs and misfit hook-ups. The boys embark on a mission to up their hot babe batting average. They meet Hollywood Casanova Johnny Eyelash (Mario Diaz) who teaches these boys the game of scoring A-list arm candy. But there is one problem, the girls are organized, cunning and have an agenda of their own. Its not long before the girls, led by Big Wendy (Jenae Alt) and Little Wendy (Eli Jane) pick up on Johnny's tactics and Hollywood becomes one big booby trap.
Complete name : Hollywood.Sex.Wars.2011.DVDRip.XviD-OCW.avi
Format : AVI
Format/Info : Audio Video Interleave
File size : 1.01 GiB
Duration : 1h 38mn
Overall bit rate : 1 464 Kbps
Writing library : MPlayer
Video
ID : 0
Format : MPEG-4 Visual
Format profile : Advanced Simple@L5
Format settings, BVOP : 2
Format settings, QPel : No
Format settings, GMC : No warppoints
Format settings, Matrix : Default (H.263)
Codec ID : XVID
Codec ID/Hint : XviD
Duration : 1h 38mn
Bit rate : 1 196 Kbps
Width : 640 pixels
Height : 352 pixels
Display aspect ratio : 16:9
Frame rate : 23.976 fps
Color space : YUV
Chroma subsampling : 4:2:0
Bit depth : 8 bits
Scan type : Progressive
Compression mode : Lossy
Bits/(Pixel*Frame) : 0.221
Stream size : 846 MiB (82%)
Writing library : XviD 63
Audio
ID : 1
Format : MPEG Audio
Format version : Version 1
Format profile : Layer 3
Mode : Joint stereo
Mode extension : MS Stereo
Codec ID : 55
Codec ID/Hint : MP3
Duration : 1h 38mn
Bit rate mode : Constant
Bit rate : 256 Kbps
Channel(s) : 2 channels
Sampling rate : 44.1 KHz
Compression mode : Lossy
Delay relative to video : 42ms
Stream size : 181 MiB (17%)
Alignment : Aligned on interleaves
Interleave, duration : 26 ms (0.63 video frame)
Interleave, preload duration : 809 ms
Writing library : LAME3.98.4
http://www.imdb.com/title/tt1764366
image
image
image
image

Related Torrents

torrent name size files age seed leech

Sharing Widget


Download torrent
1.01 GB
seeders:0
leechers:0
Hollywood Sex Wars 2011 DVDRiP XViD-OCW

Trackers

tracker name Status checked seeders leechers downloads
udp://tracker.openbittorrent.com:80/announce
outdated 16 Jul 2014 - - -
udp://tracker.istole.it:80/announce
outdated 16 Jul 2014 - - -
udp://tracker.publicbt.com:80/announce
outdated 16 Jul 2014 - - -
udp://tracker.1337x.org:80/announce
outdated 25 Sep 2013 - - -
http://exodus.desync.com:6969/announce
blocked 25 Sep 2013 - - -
udp://tracker.ccc.de:80/announce
deleted 25 Sep 2013 - - -
udp://fr33domtracker.h33t.com:3310/announce
deleted 25 Sep 2013 - - -
µTorrent compatible trackers list

Locations

name
KickassTorrents
ThePirateBay
ExtraTorrent
Limetorrents
Torrent hash: CFD14CE132F58DC6444BC1FC8C1DACDE0893C3E7

Top Comments

2
KuruKumBa535 • 11 Sep 2012, 18:11
torrent downloaded
audio: 9video: 9
Quality Good
2
bigguy22224 • 13 Sep 2012, 13:27
torrent downloaded
thank you

All Comments

audio
8/10
video
8/10
please, leave only comments related to that torrent
or sign-in
0
anonymous • 29 December 2013, 13:38 Show comment
audio: 10video: 10
brilent
0
SylverXI149 • 10 August 2013, 21:54
torrent downloaded
Show comment
Good copy!
0
anonymous • 20 April 2013, 06:43 Show comment
(.Y.) [ ] ( y )
0
at.nguyen776470 • 28 March 2013, 06:55
torrent downloaded
Show comment
audio: 10video: 10
awesome movie, great quality and thanks for sharing
0
Jonze_G2423 • 25 March 2013, 16:33
torrent downloaded
Show comment
audio: 9video: 8
0
vivek554291 • 17 November 2012, 14:12
torrent downloaded
Show comment
audio: 8video: 8
Good :)
0
jvn1991123 • 11 November 2012, 22:13
torrent downloaded
Show comment
ty !
0
butterflies4493 • 04 November 2012, 18:56
torrent downloaded
Show comment
audio: 9video: 8
0
pauldean33 • 04 November 2012, 12:39
torrent downloaded
Show comment
thanks uploader, good film.
0
anonymous • 03 November 2012, 10:31 Show comment
sex pics http://imagetwist.com/xx5fzsb62e4o/1-18aa_160x600_gif_1.gif.html
Show More All

User Opinions

q8djent6022, Fireman58444510, Moglee1355, toxictoadz1243, jkarp1729, martinowp565, Rav817448, hobyt319, joe123321235, Littlelostsoul420229 ... And 657 more
SGTskipryder10.68K, Dr_M1861, dinodinodinodino1103, dilipkk983, epik™585, schizofreud541, blindnowhite445, Drefcom200, hellboycool118, Atef Malak8 ... And 118 more
Report a bug