Great Teacher Onizuka 2012 ep01 480p x264

seeders: 16
leechers: 3
Added on Aug 8, 2012 by utterjoy5125 in TV
Torrent verified. Downloaded 1,097 times.

  • View all GTO: Great Teacher Onizuka (2012) episodes
  • Episode title: Episode 1
  • Episode: S01E01
  • Air date: 03 July 2012
  • Original run: 03 July 2012 — 11 September 2012
  • Summary:
    Through the introduction of his friend Danma Ryuji, Onizuka Eikichi, the former legendary bike gang member, visits Meishu Academy to tend to the trees in the garden as a part-time gardener. Learning that Yoshikawa Noboru, a student in teacher Fuyutsuki Azusa’s class is being bullied by Uehara Kyoko and other classmates, Onizuka befriends and saves Yoshikawa.
    Written by Arjuna_King78.63K
    report summary
Great Teacher Onizuka 2012 ep01 480p x264 (Size: 505.5 MB)
  GTO banner.jpg 79.33 KB
  GTO.ep01.480p.x264-[D-Addicts].mp4 503.32 MB
  GTO.ep01.480p.x264-[D-Addicts].srt 46.03 KB
  GTO.ep01.480p.x264-[D-Addicts]_s.jpg 2.06 MB

Description

image


http://wiki.d-addicts.com/Great_Teacher_Onizuka_2012
http://asianwiki.com/GTO:_Great_Teacher_Onizuka_-_Drama
http://www.ktv.jp/gto/index.html

Title: グレート ティーチャー オニヅカ
Title (English): Great Teacher Onizuka
Also known as: GTO
Genre: School, human drama
Episodes: TBA
Broadcast network: Fuji TV / KTV
Broadcast period: 2012-Jul-03 to 2012-Sep
Air time: Tuesday 22:00
Theme song: 24karats TRIBE OF GOLD by EXILE TRIBE
Related TV shows: Great Teacher Onizuka (Fuji TV, 1998)
Language: Japanese
Country: Japan
Subtitles: English (credit to Eric Paroissien @ http://paroissien.free.fr/mov/mov.html)

Production Credits
Original writing: GTO & GTO SYONAN 14 DAYS by Fujisawa Tohru
Screenwriter: Fukazawa Masaki (深沢正樹)
Producers: Kasai Hideyuki (河西秀幸), Yamamoto Yoshihiko (山本喜彦)
Director: Imai Kazuhisa
Music: Haneoka Kei (羽岡佳)

Main Cast
AKIRA as Onizuka Eikichi
Takimoto Miori as Fuyutsuki Azusa
Shirota Yu as Danma Ryuji
Yamamoto Yusuke as Saejima Toshiyuki
Takachi Noboru as Hashimoto Tetsuo
Takizawa Saori as Moritaka Shoko
Yano Masato as Teshigawara Suguru
Fujisawa Ayano (藤沢あやの) as Shiratori Ayame
Nagasawa Nao as Katayama Saki
Kobayashi Yumi as Sawada Noriko
Sugi-chan (スギちゃん) as Fukuroda Hajime
Fuse Eri as Sannomaru Hiroko
Tayama Ryosei as Uchiyamada Hiroshi
Kuroki Hitomi as Sakurai Ryoko

Class 2-4
Kawaguchi Haruna as Aizawa Miyabi
Takada Sho as Kikuchi Yoshito
Morimoto Shintaro as Murai Kunio
Nishiuchi Mariya (西内まりや) as Katsuragi Miki
Honda Tsubasa as Kanzaki Urumi
Miyazaki Karen as Nomura Tomoko
Shirahama Aran as Dojima Seiya
Nakagawa Taishi as Yoshikawa Noboru
Yamada Yuki (山田裕貴) as Fujiyoshi Koji
Suzuki Nobuyuki (鈴木伸之) as Kusano Tadaaki
Sano Gaku (佐野岳) as Ishida Takumi
Takatsuki Sara as Kawae Haruka
Takara Hikari (高良光莉) as Kujirakawa Fuyumi
Shinkawa Yua as Uehara Anko
Ishii Anna (石井杏奈) as Asano Mayuko
Sayama Ayaka (佐山彩香) as Izumi Naomi
Sakaguchi Rikako (坂口莉果子) as Shirai Chikako
Miyake Hitomi (三宅ひとみ) as Asakura Megumi
Hikita Hidemi (疋田英美) as Nakanishi Yumi
Bando Nozomi (坂東希) as Hitachi Ai
Yasuda Seia (安田聖愛) as Morishita Rinko
Natsuo (夏緒) as Ota Hidemi
Mitsuhashi Nanami (三橋奈波) as Nakagawa Erika
Fujii Chihi (藤井千帆) as Otsuka Mayumi
Kirishima Miyu (桐嶋美結) as Iwata Yukiko
Utsumi Akiyoshi (内海啓貴) as Miyamori Yuki
Shiono Akihisa (塩野瑛久) as Mizuhara Ryoichi
Machida Hirokata (町田宏器) as Satomi Keiichi
Sato Oho (佐藤王宝) as Kurokawa Hiroyuki
Komori Shota (小森翔太) as Ueda Umanosuke
Shimoyama Aoi (下山葵) as Mishima Gunji
Yayama Hiromu (矢山博夢) as Suzuki Daisuke
Nagayama Akira (永山輝) as Sugawara Tamotsu

Synopsis
Through the introduction of his friend Danma Ryuji, Onizuka Eikichi, the former legendary bike gang member, visits Meishu Academy to tend to the trees in the garden as a part-time gardener. Learning that Yoshikawa Noboru, a student in teacher Fuyutsuki Azusa’s class is being bullied by Uehara Kyoko and other classmates, Onizuka befriends and saves Yoshikawa. Seeing Onizuka’s unprecedented but visceral, powerful response to problem solving, the school’s president and principal, Sakurai Yoshiko, overrides resistance from her vice principal Uchiyamada Hiroshi and makes Onizuka a teacher. Onizuka goes on to tackle many issues as the teacher in charge of the most problematic class, Class 2-4.

General
Complete name : GTO.ep01.480p.x264-[D-Addicts].mp4
Format : MPEG-4
Format profile : Base Media
Codec ID : isom
File size : 503 MiB
Duration : 57mn 29s
Overall bit rate mode : Variable
Overall bit rate : 1 224 Kbps

Video
ID : 1
Format : AVC
Format/Info : Advanced Video Codec
Format profile : High@L4.1
Format settings, CABAC : Yes
Format settings, ReFrames : 4 frames
Codec ID : avc1
Codec ID/Info : Advanced Video Coding
Duration : 57mn 29s
Bit rate : 1 092 Kbps
Maximum bit rate : 11.5 Mbps
Width : 848 pixels
Height : 480 pixels
Display aspect ratio : 16:9
Frame rate mode : Constant
Frame rate : 29.970 fps
Color space : YUV
Chroma subsampling : 4:2:0
Bit depth : 8 bits
Scan type : Progressive
Bits/(Pixel*Frame) : 0.089
Stream size : 449 MiB (89%)
Writing library : x264 core 125 r2200 999b753

Audio
ID : 2
Format : AAC
Format/Info : Advanced Audio Codec
Format profile : LC
Codec ID : 40
Duration : 57mn 29s
Bit rate mode : Variable
Bit rate : 128 Kbps
Maximum bit rate : 136 Kbps
Channel(s) : 2 channels
Channel positions : Front: L R
Sampling rate : 44.1 KHz
Compression mode : Lossy
Stream size : 52.6 MiB (10%)

Related Torrents

torrent name size files age seed leech

Sharing Widget


Download torrent
505.5 MB
seeders:16
leechers:3
Great Teacher Onizuka 2012 ep01 480p x264

Trackers

tracker name Status checked seeders leechers downloads
udp://tracker.openbittorrent.com:80/announce
outdated 28 Jan 2013 - - -
http://tracker.istole.it/announce
outdated 28 Jan 2013 - - -
udp://tracker.1337x.org:80/announce
outdated 28 Jan 2013 - - -
udp://tracker.publicbt.com:80/announce
outdated 28 Jan 2013 - - -
udp://tracker.istole.it:80/announce
outdated 28 Jan 2013 - - -
http://exodus.desync.com:6969/announce
blocked 28 Jan 2013 - - -
http://tracker.publicbt.com/announce
deleted 28 Jan 2013 - - -
udp://fr33domtracker.h33t.com:3310/announce
deleted 28 Jan 2013 - - -
http://www.asiatorrents.me/announce.php?pid=233339c63e63d0c2e43592a4d4da45a4
pending 28 Jan 2013 16 0 1097
µTorrent compatible trackers list

Locations

name
KickassTorrents
Torrent hash: 176F092097E55F26E53E56D9D981D6E68E16C023

All Comments

audio
9/10
video
9/10
please, leave only comments related to that torrent
or sign-in
0
Ste11a2425 • 05 September 2012, 17:55
torrent downloaded
Show comment
audio: 10video: 10
Thanks!
0
borgsie937 • 11 August 2012, 15:02
torrent downloaded
Show comment
audio: 9video: 8
Can't wait for more!

User Opinions

Report a bug