Flicka 3 Country Pride 2012 DVDRip XviD-miRaGe

seeders: 0
leechers: 0
Added on May 4, 2012 by DEMONLORD40001564 in Movies
Torrent verified. Downloaded 0 times.

Summary:
Flicka and Toby help out a struggling stable owner and her teenage daughter.
Written by ManShia61.56K
report summary
Available in versions: DVDDVDRip
Flicka 3 Country Pride 2012 DVDRip XviD-miRaGe (Size: 703.32 MB)
  Flicka.3.Country.Pride.2012.DVDRip.XviD-miRaGe.avi 703.13 MB
  Flicka.3.Country.Pride.2012.DVDRip.XviD-miRaGe.jpg 186.93 KB
  Flicka.3.Country.Pride.DVDRip.XviD-miRaGe.nfo 2.81 KB
  Torrent TXT Files

Description

image

image

online info
___________
imdb: http://www.imdb.com/title/tt2039339/
rating: G
runtime: 111 min
genre: Family
release date: May 1 2012
plot: Flicka and Toby help out a struggling stable owner and her teenage daughter.


Format : AVI
______
Format/Info : Audio Video Interleave

File size : 703 MiB

Duration : 1h 32mn

Overall bit rate mode : Variable

Overall bit rate : 1 066 Kbps


Video
_____
Codec ID : XVID

Duration : 1h 32mn

Bit rate : 940 Kbps

Width : 624 pixels

Height : 352 pixels

Display aspect ratio : 16:9

Frame rate : 23.976 fps

Color space : YUV

Chroma subsampling : 4:2:0

Bit depth : 8 bits

Scan type : Progressive

Compression mode : Lossy

Bits/(Pixel*Frame) : 0.179

Stream size : 620 MiB (88%)

Writing library : XviD 64



Audio
_____
ID : 1

Format : MPEG Audio

Format version : Version 1

Format profile : Layer 3

Mode : Joint stereo

Mode extension : MS Stereo

Codec ID : 55

Codec ID/Hint : MP3

Duration : 1h 32mn

Bit rate mode : Variable

Bit rate : 113 Kbps

Nominal bit rate : 128 Kbps

Channel(s) : 2 channels

Sampling rate : 48.0 KHz

Compression mode : Lossy

Stream size : 74.6 MiB (11%)

Alignment : Aligned on interleaves

Interleave, duration : 24 ms (0.58 video frame)

Interleave, preload duration : 162 ms


notes
_____
Looking for cammers or suppliers who can bring unreleased movies/games/etc

servers, accounts, etc


greetz
______
thanks to 26k, HDscene, Vision, Noir, BTVRG, and everyone else we respect

special shout out to everyone at the underground


screens
________
image

Related Torrents

torrent name size files age seed leech

Sharing Widget


Download torrent
703.32 MB
seeders:0
leechers:0
Flicka 3 Country Pride 2012 DVDRip XviD-miRaGe

Trackers

tracker name Status checked seeders leechers downloads
http://pow7.com/announce
outdated 24 Jan 2015 - - -
udp://tracker.openbittorrent.com:80/announce
outdated 15 Mar 2013 - - -
http://tracker.istole.it/announce
outdated 15 Mar 2013 - - -
udp://tracker.publicbt.com:80/announce
outdated 15 Mar 2013 - - -
udp://tracker.istole.it:80/announce
outdated 15 Mar 2013 - - -
udp://tracker.1337x.org:80/announce
outdated 15 Mar 2013 - - -
http://10.rarbg.com/announce
private 15 Mar 2013 - - -
http://exodus.desync.com:6969/announce
blocked 15 Mar 2013 - - -
udp://fr33domtracker.h33t.com:3310/announce
deleted 15 Mar 2013 - - -
http://tracker.publicbt.com/announce
deleted 15 Mar 2013 - - -
ĀµTorrent compatible trackers list

Locations

name
KickassTorrents
Torrent hash: AE5C6180B1D1FD629D1E5FBB159A26C57BC94642

All Comments

audio
9/10
video
9/10
please, leave only comments related to that torrent
or sign-in
0
UltimateGohan1005 • 20 November 2014, 10:16
torrent downloaded
Show comment
thanks it is good
0
firehawk698629 • 19 November 2014, 05:10
torrent downloaded
Show comment
audio: 9video: 9
0
Grimreapers675 • 09 June 2014, 09:04
torrent downloaded
Show comment
audio: 10video: 10
Very good copy, Thanx!
0
SABlueBull2623 • 15 October 2013, 16:50
torrent downloaded
Show comment
Thanks for upload
0
Devils-Reaper77.6K • 20 July 2013, 08:15
torrent downloaded
Show comment
audio: 9video: 9
Thanks Uploader nice share........
0
stevepc292 • 30 March 2013, 11:55
torrent downloaded
Show comment
audio: 9video: 9
thanks from my girls
0
kwik-kiwi2044 • 16 January 2013, 06:38
torrent downloaded
Show comment
audio: 10video: 10
0
anonymous • 06 June 2012, 08:44 Show comment
audio: 9video: 10
0
SeanAngela241 • 12 May 2012, 16:16
torrent downloaded
Show comment
audio: 9video: 9

User Opinions

F.Francisco6365, rayron5564, lonilee3680, benga203157, kwik-kiwi2044, Ravo_XP1942, windhio942, aeauer825, hardwork403, SeanAngela241 ... And 45 more
bloodeath26
Report a bug