Fast and Furious 5 Rio Heist 2011 NEW HQ VIDEO TS XviD AC3 Hive-CM8-TheCod3r

seeders: 0
leechers: 1
Added on May 24, 2011 in Movies
Torrent verified. Downloaded 5 times.

  • add Fast Five to bookmarks
  • Release date: 29 April 2011
  • Writers: Chris Morgan, Gary Scott Thompson (characters)
  • Language: English
Summary:
Dominic Toretto and his crew of street racers plan a massive heist to buy their freedom while in the sights of a powerful Brazilian drug lord and a dangerous federal agent.
Written by Chev.Chelios313.07K
report summary
Fast and Furious 5 Rio Heist 2011 NEW HQ VIDEO TS XviD AC3 Hive-CM8-TheCod3r (Size: 1.79 GB)
  Fast.and.Furious.5.Rio.Heist.2011.NEW.HQ.VIDEO.TS.XviD.AC3.Hive-CM8.avi 1.76 GB
  sample action.avi 11.5 MB
  sample daylight.avi 9.2 MB
  sample dark.avi 3.93 MB
  info.txt 3.78 KB
  Join us at Bit Byte.url 113 bytes
  Torrent downloaded from Demonoid.me.txt 46 bytes

Description


image



[color=blueFast.and.Furious.5.Rio.Heist.2011.NEW.HQ.VIDEO.TS.XviD.AC3.Hive-CM8



Sources:



Video: New High Quality German 720P TS PFD thx

Audio: Imagines Line thx



Encode:



the german ts was very good, no shaking,no flickering, nothing cropped and full movie.

The scenes at daylight were very good didnt touch them much, there are some darker scenes

which i brightened up a bit, looks very good now, could almost pass as a screener.

I synced the line nearly lipsync, was a lot of work all together around 10h work at least.

will do till the retail comes around.

watch samples!!



Video: 720x304 @bitrate 1900 2pass

Audio: English AC3 2.0 Stereo

Sample: yes 3 included, daylight,dark and action parts





http://www.imdb.com/title/tt1596343/





General

Complete name : Fast.and.Furious.5.Rio.Heist.2011.NEW.HQ.VIDEO.TS.XviD.AC3.Hive-CM8.avi

Format : AVI

Format/Info : Audio Video Interleave

File size : 1.76 GiB

Duration : 1h 56mn

Overall bit rate : 2 167 Kbps

Writing application : Nandub v1.0rc2

Writing library : Nandub build 1853/release



Video

ID : 0

Format : MPEG-4 Visual

Format profile : Advanced Simple@L5

Format settings, BVOP : 2

Format settings, QPel : Yes

Format settings, GMC : No warppoints

Format settings, Matrix : Default (H.263)

Muxing mode : Packed bitstream

Codec ID : XVID

Codec ID/Hint : XviD

Duration : 1h 56mn

Bit rate : 1 901 Kbps

Width : 720 pixels

Height : 304 pixels

Display aspect ratio : 2.35:1

Frame rate : 25.000 fps

Color space : YUV

Chroma subsampling : 4:2:0

Bit depth : 8 bits

Scan type : Progressive

Compression mode : Lossy

Bits/(Pixel*Frame) : 0.347

Stream size : 1.55 GiB (88%)

Writing library : XviD 1.2.1 (UTC 2008-12-04)



Audio

ID : 1

Format : AC-3

Format/Info : Audio Coding 3

Mode extension : CM (complete main)

Codec ID : 2000

Duration : 1h 56mn

Bit rate mode : Constant

Bit rate : 256 Kbps

Channel(s) : 2 channels

Channel positions : Front: L R

Sampling rate : 48.0 KHz

Bit depth : 16 bits

Compression mode : Lossy

Stream size : 213 MiB (12%)

Alignment : Split accross interleaves

Interleave, duration : 40 ms (1.00 video frame)

Interleave, preload duration : 500 ms







Vin Diesel ... Dominic Toretto

Paul Walker ... Brian O'Conner

Jordana Brewster ... Mia

Tyrese Gibson ... Roman

Ludacris ... Tej (as Chris 'Ludacris' Bridges)

Matt Schulze ... Vince

Dwayne Johnson ... Hobbs





Dominic and his crew find themselves on the wrong side of the law once again

as they try to switch lanes between a ruthless drug lord and a relentless federal agent.



image



Join us at http://www.bit-byte.org for more great uploads...




Related Torrents

torrent name size files age seed leech

Sharing Widget


Download torrent
1.79 GB
seeders:0
leechers:1
Fast and Furious 5 Rio Heist 2011 NEW HQ VIDEO TS XviD AC3 Hive-CM8-TheCod3r

Trackers

tracker name Status checked seeders leechers downloads
http://inferno.demonoid.me:3391/announce
active 28 Mar 2015 0 1 5
http://tracker.openbittorrent.com/announce
outdated 19 May 2013 - - -
udp://tracker.publicbt.com:80/announce
outdated 19 May 2013 - - -
udp://tracker.openbittorrent.com:80/announce
outdated 19 May 2013 - - -
http://tracker.publicbt.com/announce
deleted 19 May 2013 - - -
µTorrent compatible trackers list

Locations

name
1337x
Torrent hash: 6d1468cea85842c968fffec2e59193354e8abeb3

All Comments

audio
5/10
video
5/10
please, leave only comments related to that torrent
or sign-in
0
anonymous • 27 March 2013, 17:41 Show comment
these 2 guys are nobs
0
Nightmare.8910.37K • 07 April 2012, 12:59 Show comment
audio: 10video: 10
thanks
0
anonymous • 23 August 2011, 21:15 Show comment
Cinavia security trips using the PS3, probably on other devices that can detect the Cinavia audio watermark as well.
1
anonymous • 26 May 2011, 21:22 Show comment
audio: 1video: 1
no quality
0
anonymous • 05 May 2013, 19:31 Show comment
this guy is a troller.

0
itsme!100 • 24 May 2011, 21:03 Show comment
quality?

User Opinions

Report a bug