Face.Off {Hindi-Eng-Italian}TRIPLE.AUDIO.BRRip.aaaevilacharya

seeders: 2
leechers: 0
Added on Dec 24, 2010 in Movies
Torrent verified. Downloaded 10 times.

Face.Off {Hindi-Eng-Italian}TRIPLE.AUDIO.BRRip.aaaevilacharya (Size: 974.45 MB)
  Face.Off {hindi-eng-ita}TRIPLE.AUDIO.BRRip.aaaevilacharya.mkv 974.15 MB
  F.a.c.e.O.f.f Italiano.aaaevilacharya.srt 144.04 KB
  F.a.c.e.O.f.f English.aaaevilacharya.srt 84.83 KB
  TIrG.jpg 71.59 KB
  Torrent downloaded from.txt 164 bytes

Description

General

Complete name : Face.Off {hindi-eng-ita}TRIPLE.AUDIO.BRRip.aaaevilacharya.mkv
Format : Matroska
File size : 974 MiB
Duration : 2h 13mn
Overall bit rate : 1 022 Kbps
Movie name : aaaevilacharya{TiRG}
Encoded date : UTC 2010-12-01 19:12:34
Writing application : mkvmerge v2.9.8 ('C'est le bon') built on Aug 13 2009 12:49:06
Writing library : libebml v0.7.7 + libmatroska v0.8.1

Video
ID : 1
Format : AVC
Format/Info : Advanced Video Codec
Format profile : Main@L3.0
Format settings, CABAC : Yes
Format settings, ReFrames : 2 frames
Muxing mode : Container profile=Unknown@3.0
Codec ID : V_MPEG4/ISO/AVC
Duration : 2h 13mn
Bit rate : 732 Kbps
Width : 912 pixels
Height : 368 pixels
Display aspect ratio : 2.35:1
Frame rate : 25.000 fps
Color space : YUV
Chroma subsampling : 4:2:0
Bit depth : 8 bits
Scan type : Progressive
Bits/(Pixel*Frame) : 0.087
Stream size : 680 MiB (70%)
Title : aaaevilacharya{TiRG}
Writing library : x264 core 79
Encoding settings : cabac=1 / ref=2 / deblock=1:0:0 / analyse=0x1:0x111 / me=hex / subme=6 / psy=1 / psy_rd=1.0:0.0 / mixed_ref=0 / me_range=16 / chroma_me=1 / trellis=0 / 8x8dct=0 / cqm=0 / deadzone=21,11 / chroma_qp_offset=-2 / threads=3 / nr=0 / decimate=1 / mbaff=0 / constrained_intra=0 / bframes=2 / b_pyramid=0 / b_adapt=1 / b_bias=0 / direct=1 / wpredb=0 / wpredp=2 / keyint=250 / keyint_min=25 / scenecut=40 / rc_lookahead=40 / rc=abr / mbtree=1 / bitrate=732 / ratetol=1.0 / qcomp=0.60 / qpmin=10 / qpmax=51 / qpstep=4 / ip_ratio=1.40 / aq=1:1.00
Language : English
Color primaries : BT.601-6 525, BT.1358 525, BT.1700 NTSC, SMPTE 170M
Transfer characteristics : BT.709-5, BT.1361
Matrix coefficients : BT.601-6 525, BT.1358 525, BT.1700 NTSC, SMPTE 170M

Audio #1
ID : 2
Format : MPEG Audio
Format version : Version 1
Format profile : Layer 3
Mode : Joint stereo
Mode extension : MS Stereo
Codec ID : A_MPEG/L3
Codec ID/Hint : MP3
Duration : 2h 13mn
Bit rate mode : Constant
Bit rate : 96.0 Kbps
Channel(s) : 2 channels
Sampling rate : 32.0 KHz
Stream size : 91.5 MiB (9%)
Title : aaaevilacharya
Writing library : LAME3.97
Language : Hindi

Audio #2
ID : 3
Format : MPEG Audio
Format version : Version 1
Format profile : Layer 3
Mode : Joint stereo
Mode extension : MS Stereo
Codec ID : A_MPEG/L3
Codec ID/Hint : MP3
Duration : 2h 13mn
Bit rate mode : Constant
Bit rate : 96.0 Kbps
Channel(s) : 2 channels
Sampling rate : 32.0 KHz
Stream size : 91.5 MiB (9%)
Title : aaaevilacharya
Writing library : LAME3.97
Language : English

Audio #3
ID : 4
Format : MPEG Audio
Format version : Version 1
Format profile : Layer 3
Mode : Joint stereo
Mode extension : MS Stereo
Codec ID : A_MPEG/L3
Codec ID/Hint : MP3
Duration : 2h 13mn
Bit rate mode : Constant
Bit rate : 96.0 Kbps
Channel(s) : 2 channels
Sampling rate : 32.0 KHz
Stream size : 91.5 MiB (9%)
Title : aaaevilacharya
Writing library : LAME3.97
Language : Italian

SCREENSHOTS


http://img255.imageshack.us/.../faceoffhindiengitatripl.jpg
http://img576.imageshack.us/.../faceoffhindiengitatripl.jpg
http://img560.imageshack.us/.../faceoffhindiengitatripl.jpg
http://img545.imageshack.us/.../faceoffhindiengitatripl.jpg
http://img832.imageshack.us/.../faceoffhindiengitatripl.jpg
http://img842.imageshack.us/.../faceoffhindiengitatripl.jpg
http://img15.imageshack.us/i.../faceoffhindiengitatripl.jpg
http://img252.imageshack.us/.../faceoffhindiengitatripl.jpg
http://img691.imageshack.us/.../faceoffhindiengitatripl.jpg
http://img222.imageshack.us/.../faceoffhindiengitatripl.jpg
http://img823.imageshack.us/.../faceoffhindiengitatripl.jpg
http://img593.imageshack.us/.../faceoffhindiengitatripl.jpg
http://img560.imageshack.us/.../faceoff1997frontcover72.jpg

Sharing Widget


Download torrent
974.45 MB
seeders:2
leechers:0
Face.Off {Hindi-Eng-Italian}TRIPLE.AUDIO.BRRip.aaaevilacharya

Trackers

tracker name Status checked seeders leechers downloads
udp://tracker.publicbt.com:80/announce
outdated 03 Nov 2014 - - -
udp://tracker.openbittorrent.com:80/announce
outdated 03 Nov 2014 - - -
udp://tracker.istole.it:80/announce
outdated 03 Nov 2014 - - -
http://tracker.ex.ua/announce
outdated 15 May 2014 - - -
udp://tracker.torrentbox.com:2710/announce
outdated 13 Oct 2013 - - -
http://tracker.openbittorrent.com/announce
outdated 11 Feb 2013 - - -
http://bt1.the9.com:6969/announce
outdated 11 Feb 2013 - - -
http://nyaatorrents.info:3277/announce
outdated 11 Feb 2013 - - -
http://tracker.istole.it/announce
outdated 11 Feb 2013 - - -
http://tracker.csze.com/announce
outdated 11 Feb 2013 - - -
http://exodus.1337x.org/announce
outdated 11 Feb 2013 - - -
http://pow7.com/announce
outdated 11 Feb 2013 - - -
http://tracker.torrentbay.to:6969/announce
outdated 11 Feb 2013 - - -
http://tracker.publicbt.com/announce
deleted 11 Mar 2013 - - -
http://tgp-network.com/announce.php
error 24 Dec 2010 - - -
http://tracker.torrentbox.com:2710/announce
error 24 Dec 2010 - - -
http://genesis.1337x.org/announce
error 24 Dec 2010 - - -
ĀµTorrent compatible trackers list

Locations

name
ThePirateBay
Limetorrents
Limetorrents
ExtraTorrent
Torrent hash: ab8a1475130b3fe8863c46d5377d686629ca084e

All Comments

audio
9/10
video
9/10
please, leave only comments related to that torrent
or sign-in
0
sam173480 • 18 October 2014, 09:04
torrent downloaded
Show comment
no download speed :(
0
evildead181197 • 28 March 2014, 13:11
torrent downloaded
Show comment
audio: 9video: 9
nice thx
0
OPJ176 • 23 March 2012, 13:32
torrent downloaded
Show comment
Hey ~aaaevilacharya~ I'm u r Fan...
0
khan10556 • 18 March 2012, 12:39
torrent downloaded
Show comment
audio: 10video: 10
0
anonymous • 30 January 2012, 12:11 Show comment
audio: 10video: 10
nice print, audio.
0
nakul_d_kesariya304 • 12 November 2011, 18:15
torrent downloaded
Show comment
audio: 10video: 10
mast hai !!

User Opinions

Report a bug