Dexter S06E05 HDTV XviD-DiViSiON

seeders: 1
leechers: 0
Added on Oct 31, 2011 by Piney2213.89K in TV
Torrent verified. Downloaded 6,843 times.

  • View all Dexter episodes
  • Episode title: The Angel of Death
  • Episode: S06E05
  • Air date: 30 October 2011
  • IMDb link: 0773262
  • Original run: 01 October 2006 — 22 September 2013
  • Summary:
    A Miami police forensics expert moonlights as a serial killer of criminals whom he believes have escaped justice.
    Written by TH369.95K
    report summary
Dexter S06E05 HDTV XviD-DiViSiON (Size: 419.69 MB)
  Dexter.S06E05.HDTV.XviD-DiViSiON.avi 419.69 MB
  Readme.txt 610 bytes
  Torrent downloaded from Demonoid.me.txt 46 bytes
  downloaded at superseeds.org.txt 28 bytes

Description

Format/Info : Audio Video Interleave
File size : 420 MiB
Duration : 51mn 28s
Overall bit rate : 1 140 Kbps
Writing application : Lavf52.47.0

Video
ID : 0
Format : xvid
Codec ID : xvid
Duration : 51mn 27s
Bit rate : 1 000 Kbps
Width : 640 pixels
Height : 352 pixels
Display aspect ratio : 16:9
Frame rate : 25.000 fps
Bits/(Pixel*Frame) : 0.178
Stream size : 368 MiB (88%)

Audio
ID : 1
Format : MPEG Audio
Format version : Version 1
Format profile : Layer 3
Mode : Joint stereo
Codec ID : 55
Codec ID/Hint : MP3
Duration : 51mn 28s
Bit rate mode : Constant
Bit rate : 128 Kbps
Channel(s) : 2 channels
Sampling rate : 44.1 KHz
Compression mode : Lossy
Stream size : 47.1 MiB (11%)
Alignment : Aligned on interleaves
Interleave, duration : 26 ms (0.65 video frame)
Writing library : LAME3.98.2

Related Torrents

torrent name size files age seed leech

Sharing Widget


Download torrent
419.69 MB
seeders:1
leechers:0
Dexter S06E05 HDTV XviD-DiViSiON

Trackers

tracker name Status checked seeders leechers downloads
http://exodus.desync.com/announce
outdated 20 Aug 2012 - - -
udp://tracker.openbittorrent.com:80/announce
outdated 21 Jul 2012 - - -
udp://tracker.publicbt.com:80/announce
outdated 21 Jul 2012 - - -
http://tracker.openbittorrent.com/announce
outdated 21 Jul 2012 - - -
http://pubt.net:2710/announce
outdated 21 Jul 2012 - - -
http://tracker.istole.it/announce
outdated 21 Jul 2012 - - -
udp://tracker.1337x.org:80/announce
outdated 21 Jul 2012 - - -
udp://tracker.istole.it:80/announce
outdated 21 Jul 2012 - - -
http://t1.pow7.com/announce
outdated 21 Jul 2012 - - -
http://pow7.com/announce
outdated 21 Jul 2012 - - -
http://10.rarbg.com/announce
private 21 Jul 2012 - - -
http://exodus.desync.com:6969/announce
blocked 22 Aug 2012 - - -
http://tracker.publicbt.com/announce
deleted 11 Mar 2013 - - -
µTorrent compatible trackers list

Locations

name
KickassTorrents
Limetorrents
Torrent hash: B2F6E7EEDF2C6123AF83A502F660A0C07E8311E9

Top Comments

4
MyVidsRocK12.66K • 31 Oct 2011, 19:45
torrent downloaded
audio: 5video: 10
Audio is wrong. Dialog on the right speaker, effects on the left speaker, not proper stereo encoding.
3
MyVidsRocK12.66K • 31 Oct 2011, 21:21
torrent downloaded
What are you smoking. this is episode 5.
2
MyVidsRocK12.66K • 31 Oct 2011, 21:23
torrent downloaded
How can you justify giving the audio a 10. The Audio is wrong. Dialog on the right speaker, effects on the left speaker, not proper stereo encoding.

All Comments

audio
8/10
video
9/10
please, leave only comments related to that torrent
or sign-in
0
papajoejr122 • 25 September 2012, 21:02
torrent downloaded
Show comment
audio: 9video: 9
Thanks.
0
salentine1669 • 27 November 2011, 20:35
torrent downloaded
Show comment
audio: 9video: 9
0
GGWRULES311 • 24 November 2011, 06:59 Show comment
audio: 8video: 10
quick download, great quality
0
alicewunder1845 • 18 November 2011, 12:43
torrent downloaded
Show comment
audio: 9video: 9
Good Torrent, Thank-you. :D
0
manchild456 • 13 November 2011, 21:12
torrent downloaded
Show comment
audio: 10video: 10
0
shelobe241 • 05 November 2011, 19:39
torrent downloaded
Show comment
audio: 10video: 10
Thanks!
0
fitsou2349 • 04 November 2011, 18:12
torrent downloaded
Show comment
audio: 9video: 8
0
komi563443 • 02 November 2011, 20:56
torrent downloaded
Show comment
audio: 8video: 8
thanks
0
tooltec34569 • 02 November 2011, 17:52
torrent downloaded
Show comment
audio: 8video: 8
Show More All

User Opinions

kane15873597, boomer77827, mumbles85499, chucksbca420, MentalRape204, borednurse197, azemal179, geeknik156, jaysean2007109, japsilog106 ... And 99 more
DropDeadArt2334, psychoesie1402, duberry944, GhØsT554, JENNI4365, masquerader287, starvg22, orpheus8884
Report a bug