Bergman - Aus dem Leben der Marionetten [1980]

seeders: 0
leechers: 0
Added on Jan 24, 2010 in Movies
Torrent verified. Downloaded 0 times.

Summary:
The story of Katarina and Peter EGermann, the feuding, childless, professional couple who appear in one episode of "Scenes From A Marriage." After Peter perpetrates a horrendous crime in its first scene, the rest of the film consists of a non-linear examination of his motivations, incorporating a police psychological investigation.
Written by maxgurion149
report summary
Bergman - Aus dem Leben der Marionetten [1980] (Size: 1.24 GB)
  Aus dem Leben der Marionetten.avi 1.24 GB
  Aus dem Leben der Marionetten.fra.srt 104.07 KB
  Aus dem Leben der Marionetten.eng.srt 89.6 KB
  Aus dem Leben der Marionetten.ita.srt 88.37 KB
  Aus dem Leben der Marionetten.ptb.srt 86.15 KB
  Aus dem Leben der Marionetten.esp.srt 85.56 KB

Description

Produced and directed for German television, Ingmar Bergman's From the Life of the Marionettes starts out in color and switches almost immediately to black-and-white. This cinematic self-indulgence is ideally suited to the subject matter: the horrible consequences of a rapidly disintegrating marriage. The husband, Peter Egerman (Robert Atzorn) is unable to articulate his frustration through normal channels. Warped by his repression, Egerman ends up raping and murdering a prostitute. This outrage occurs at the very beginning of the film; the rest of the footage is devoted to a semi-documentary study of the failed marriage, the police investigation, and the husband's twisted psyche. Once again, Bergman's vision is superbly realized by the camerawork of Sven Nykvist.

General
Complete name : Aus dem Leben der Marionetten.avi
Format : AVI
Format/Info : Audio Video Interleave
File size : 1.24 GiB
Duration : 1h 39mn
Overall bit rate : 1 780 Kbps
Writing application : VirtualDubMod 1.5.10.2 (build 2540/release)
Writing library : VirtualDubMod build 2540/release
Video #0
ID : 0
Format : MPEG-4 Visual
Format settings, BVOP : Yes
Format settings, QPel : No
Format settings, GMC : No warppoints
Format settings, Matrix : Default (H.263)
Muxing mode : Packed bitstream
Codec ID : DX50
Codec ID/Hint : DivX 5
Duration : 1h 39mn
Bit rate : 1 578 Kbps
Width : 640 pixels
Height : 464 pixels
Display aspect ratio : 1.379
Frame rate : 25.000 fps
Resolution : 24 bits
Colorimetry : 4:2:0
Scan type : Progressive
Bits/(Pixel*Frame) : 0.213
Stream size : 1.10 GiB (89%)
Writing library : DivX 5.1.1 (Maupiti) (UTC 2003-11-19)
Audio #1
ID : 1
Format : AC-3
Format/Info : Audio Coding 3
Codec ID : 2000
Duration : 1h 39mn
Bit rate mode : Constant
Bit rate : 192 Kbps
Channel(s) : 3 channels
Channel positions : L R, LFE
Sampling rate : 48.0 KHz
Stream size : 137 MiB (11%)
Alignment : Split accross interleaves
Interleave, duration : 40 ms (1.00 video frame)
Interleave, preload duration : 500 ms

IMDB: tt0080397

German audio; English, French, Italian, Spanish and Portuguese subtitles

Bergman - Aus dem Leben der Marionetten [1980]

Related Torrents

torrent name size files age seed leech

Sharing Widget


Download torrent
1.24 GB
seeders:0
leechers:0
Bergman - Aus dem Leben der Marionetten [1980]

Trackers

tracker name Status checked seeders leechers downloads
udp://tracker.publicbt.com:80/announce
outdated 05 Dec 2014 - - -
udp://tracker.openbittorrent.com:80/announce
outdated 25 Jul 2014 - - -
http://tracker.openbittorrent.com/announce
outdated 27 Aug 2012 - - -
http://tracker.publicbt.com/announce
deleted 11 Mar 2013 - - -
ĀµTorrent compatible trackers list

Locations

name
ThePirateBay
Torrent hash: c77614a9eb8c2dfa59c9da9efcd39a131aee0e9f

All Comments

audio
0/10
video
0/10
please, leave only comments related to that torrent
or sign-in

User Opinions

veue437, PankajT332, madakafa174, vircode94
Report a bug