Bengali Movie - Moner Manush ( 2010 ) - Original DVD Rip

seeders: 0
leechers: 0
Added on Sep 3, 2011 in Movies > Asian
Torrent verified. Downloaded 0 times.

Summary:
The movie is about a poet and singer Lalon Fakir who belongs to a cult called baul and who believes and inculcates that the value of a human being is above the narrow belief of religions.
Written by ManShia61.54K
report summary
Bengali Movie - Moner Manush ( 2010 ) - Original DVD Rip (Size: 700.46 MB)
  Maner Manush.mkv 700.11 MB
  Maner Manush_thumb.jpg 357.85 KB

Description

**************************** TPB IS BENEDICTION TO ME ****************************
* *
* *
* * * * *
* *** *** *** *
* ***** ***** ***** *
* ******* ******* ******* *
* ********* ********* ********* *
* *********** *********** *********** *
* ************* ************* ************* *
* *************** *************** *************** *
* ***************** ***************** ***************** *
* ******************* ******************* ******************* *
* *** TPB IS D BEST *** *** TPB IS D BEST *** *** TPB IS D BEST *** *
* ******************* ******************* ******************* *
* ***************** ***************** ***************** *
* *************** *************** *************** *
* ************* ************* ************* *
* *********** *********** *********** *
* ********* ********* ********* *
* ******* ******* ******* *
* ***** ***** ***** *
* *** *** *** *
* * * * *
* *
* *
***************************** TPB IS BENEDICTION TO ME ****************************



Screen Link :---



http://www.shotpix.com/images/81328384078855691419.jpg



Torrent Status :---



http://torrent-stats.info/d99f/14bcb6211.png



General Info :---


Format : Matroska
File size : 700 MiB
Duration : 2h 33mn
Overall bit rate : 639 Kbps

Video
ID : 1
Format : AVC
Format/Info : Advanced Video Codec
Format profile : High@L4.0
Format settings, CABAC : Yes
Format settings, ReFrames : 3 frames
Format settings, GOP : N=1
Codec ID : V_MPEG4/ISO/AVC
Duration : 2h 33mn
Bit rate mode : Variable
Bit rate : 510 Kbps
Maximum bit rate : 25.0 Mbps
Width : 720 pixels
Height : 404 pixels
Display aspect ratio : 16:9
Frame rate : 23.976 fps
Color space : YUV
Chroma subsampling : 4:2:0
Bit depth : 8 bits
Scan type : Progressive
Bits/(Pixel*Frame) : 0.073
Stream size : 546 MiB (78%)

Audio
ID : 2
Format : MPEG Audio
Format version : Version 1
Format profile : Layer 2
Codec ID : A_MPEG/L2
Codec ID/Hint : MP2
Duration : 2h 33mn
Bit rate mode : Constant
Bit rate : 128 Kbps
Channel(s) : 2 channels
Sampling rate : 44.1 KHz
Compression mode : Lossy
Stream size : 140 MiB (20%)




***************************** TPB IS BENEDICTION TO ME ****************************
* *
* *
* * * * *
* *** *** *** *
* ***** ***** ***** *
* ******* ******* ******* *
* ********* ********* ********* *
* *********** *********** *********** *
* ************* ************* ************* *
* *************** *************** *************** *
* ***************** ***************** ***************** *
* ******************* ******************* ******************* *
* *** TPB IS D BEST *** *** TPB IS D BEST *** *** TPB IS D BEST *** *
* ******************* ******************* ******************* *
* ***************** ***************** ***************** *
* *************** *************** *************** *
* ************* ************* ************* *
* *********** *********** *********** *
* ********* ********* ********* *
* ******* ******* ******* *
* ***** ***** ***** *
* *** *** *** *
* * * * *
* *
* *
***************************** TPB IS BENEDICTION TO ME ****************************

Related Torrents

torrent name size files age seed leech

Sharing Widget


Download torrent
700.46 MB
seeders:0
leechers:0
Bengali Movie - Moner Manush ( 2010 ) - Original DVD Rip

Trackers

tracker name Status checked seeders leechers downloads
http://pow7.com/announce
active 05 Feb 2015 0 0 0
udp://tracker.publicbt.com:80/announce
outdated 25 Sep 2014 - - -
udp://tracker.openbittorrent.com:80/announce
outdated 25 Sep 2014 - - -
http://exodus.1337x.org/announce
outdated 05 Sep 2013 - - -
http://tracker.torrentbay.to:6969/announce
outdated 05 Sep 2013 - - -
http://tracker.openbittorrent.com/announce
outdated 05 Sep 2013 - - -
http://genesis.1337x.org:1337/announce
outdated 05 Sep 2013 - - -
http://10.rarbg.com/announce
private 05 Sep 2013 - - -
http://nemesis.1337x.org/announce
outdated 05 Sep 2013 - - -
http://tracker.publicbt.com/announce
deleted 05 Sep 2013 - - -
ĀµTorrent compatible trackers list

Locations

name
ThePirateBay
Fenopy
Limetorrents
Torrent hash: fb415ef5a7826957710cd99fe672eae7251d312c

All Comments

audio
8/10
video
9/10
please, leave only comments related to that torrent
or sign-in
0
Aviatar9 • 09 January 2015, 14:59
torrent downloaded
Show comment
seed please download speed verry slow
0
uplowind141 • 17 January 2014, 11:37
torrent downloaded
Show comment
Thank you very much
0
onlytanmoy155 • 08 November 2013, 15:04
torrent downloaded
Show comment
thanks...plss seed guys
0
Bagala54 • 22 March 2012, 12:43
torrent downloaded
Show comment
audio: 9video: 9
Awesome Movie.....
0
anonymous • 15 November 2011, 12:01 Show comment
print seems good but its not clear......
0
anonymous • 15 November 2011, 11:53 Show comment
audio: 8video: 9
super,super,super print.... thnx uploader

User Opinions

Crazy_Horse19.02K, tanumoy.haldar1108, sumitsonai952, smartyaritra581, AdiNC132, nurshuvo104, Kjshuvo37, bubun123430, joyespaul24, mahbubyeasin22 ... And 3 more
Report a bug