Barfi! [2012] Hindi DVDScr XviD 1CD MP3 [AVI] Team QMR - Diego

seeders: 0
leechers: 0
Added on Sep 18, 2012 by aravind0171390 in Movies > Bollywood
Torrent verified. Downloaded 0 times.

  • add Barfi! to bookmarks
  • Release date: 14 September 2012
  • Writers: Anurag Basu (story), Tani Basu (story), Sanjeev Dutta (dialogue)
  • Language: Hindi
Summary:
Three young people learn that love can neither be defined nor contained by society's norms of normal and abnormal.
Written by TheStrength54.51K
report summary
Barfi! [2012] Hindi DVDScr XviD 1CD MP3 [AVI] Team QMR - Diego (Size: 542.86 MB)
  Barfi! [2012] Hindi DVDScr XviD 1CD MP3 [AVI] Team QMR - Diego.avi 535.87 MB
  Sample - Barfi! [2012] Hindi DVDScr XviD 1CD MP3 [AVI] Team QMR - Diego.avi 5.1 MB
  Barfi! Rip Info.txt 2.65 KB
  Releasing Team.txt 91 bytes
  Bolly Screens

Description

QMR Back as http://qmrstudio.com/ , Just Register and Enjoy the Quality Rips

Visit http://qmrstudio.com/ For Cheap SeedBoxes


Enjoy the Small Size Quality Rip
500MB


image

image



General
Complete name : Barfi! [2012] Hindi DVDScr XviD 1CD MP3 [AVI] Team QMR - Diego
Format : AVI
Format/Info : Audio Video Interleave
File size : 536 MiB
Duration : 2h 28mn
Overall bit rate mode : Variable
Overall bit rate : 503 Kbps

Video
ID : 0
Format : MPEG-4 Visual
Format profile : Advanced Simple@L5
Format settings, BVOP : 2
Format settings, QPel : No
Format settings, GMC : No warppoints
Format settings, Matrix : Default (H.263)
Codec ID : XVID
Codec ID/Hint : XviD
Duration : 2h 28mn
Bit rate : 402 Kbps
Width : 640 pixels
Height : 272 pixels
Display aspect ratio : 2.35:1
Frame rate : 25.000 fps
Color space : YUV
Chroma subsampling : 4:2:0
Bit depth : 8 bits
Scan type : Progressive
Compression mode : Lossy
Bits/(Pixel*Frame) : 0.092
Stream size : 428 MiB (80%)
Writing library : XviD 1.2.1 (UTC 2008-12-04)

Audio
ID : 1
Format : MPEG Audio
Format version : Version 1
Format profile : Layer 3
Mode : Joint stereo
Mode extension : MS Stereo
Codec ID : 55
Codec ID/Hint : MP3
Duration : 2h 28mn
Bit rate mode : Variable
Bit rate : 91.4 Kbps
Nominal bit rate : 112 Kbps
Channel(s) : 2 channels
Sampling rate : 32.0 KHz
Compression mode : Lossy
Stream size : 97.3 MiB (18%)
Alignment : Aligned on interleaves
Interleave, duration : 36 ms (0.90 video frame)
Interleave, preload duration : 185 ms



image

image
image
image
image
image
image
image
image
image

EnjoY The Small Size Quality Rip
500MB


{Team QMR} Proudly Releases... !
..:: Diego ::..

..:: Don't forget to add comment / Rept. / thankx ::..

http://qmrstudio.com/

Sharing Widget


Download torrent
542.86 MB
seeders:0
leechers:0
Barfi! [2012] Hindi DVDScr XviD 1CD MP3 [AVI] Team QMR - Diego

Trackers

tracker name Status checked seeders leechers downloads
udp://tracker.publicbt.com:80/announce
outdated 05 Dec 2014 - - -
udp://tracker.istole.it:80/announce
outdated 05 Dec 2014 - - -
http://cpleft.com:2710/announce
outdated 12 Dec 2012 - - -
http://tracker.istole.it/announce
outdated 12 Dec 2012 - - -
http://tracker.ccc.de/announce
outdated 12 Dec 2012 - - -
http://exodus.desync.com:6969/announce
blocked 12 Dec 2012 - - -
udp://tracker.ccc.de:80/announce
deleted 12 Dec 2012 - - -
udp://fr33domtracker.h33t.com:3310/announce
deleted 12 Dec 2012 - - -
http://tracker.publicbt.com/announce
deleted 12 Dec 2012 - - -
http://sline.net:2710/announce
error 18 Sep 2012 - - -
ĀµTorrent compatible trackers list

Locations

name
KickassTorrents
ExtraTorrent
Torrent hash: 073C9FADE3B54C60A69A246860D5860111840A0C

All Comments

audio
2/10
video
2/10
please, leave only comments related to that torrent
or sign-in
0
Abhishek986911.61K • 28 December 2012, 16:58
torrent downloaded
Show comment
audio: 6video: 6
thanks for share..!biggrin
0
anonymous • 29 September 2012, 01:44 Show comment
audio: 1video: 1
0
anonymous • 21 September 2012, 00:49 Show comment
audio: 1video: 1

User Opinions

Report a bug