Barfi! (2012)(Audio Cleaned) - SCam Rip - MPEG-PS.mpg

seeders: 10
leechers: 6
Added on Sep 15, 2012 by HellGuy7332 in Movies > Bollywood
Torrent verified. Downloaded 333 times.

  • add Barfi! to bookmarks
  • Release date: 14 September 2012
  • Writers: Anurag Basu (story), Tani Basu (story), Sanjeev Dutta (dialogue)
  • Language: Hindi
Summary:
Three young people learn that love can neither be defined nor contained by society's norms of normal and abnormal.
Written by TheStrength54.57K
report summary
Barfi! (2012)(Audio Cleaned) - SCam Rip - MPEG-PS.mpg (Size: 848.2 MB)
  Barfi! (2012)(Audio Cleaned) - SCam Rip - MPEG-PS.mpg 848.2 MB

Description


image

image
Info -
General
Format : MPEG-PS
File size : 848 MiB
Duration : 2h 10mn
Overall bit rate : 909 Kbps
Video #224
ID : 224 (0xE0)
Format : MPEG Video
Format version : Version 2
Format profile : Main@Main
Format settings, BVOP : No
Format settings, Matrix : Default
Duration : 2h 10mn
Bit rate mode : Variable
Bit rate : 795 Kbps
Width : 352 pixels
Height : 288 pixels
Display aspect ratio : 4:3
Frame rate : 25.000 fps
Standard : PAL
Color space : YUV
Chroma subsampling : 4:2:0
Bit depth : 8 bits
Scan type : Progressive
Compression mode : Lossy
Bits/(Pixel*Frame) : 0.314
Stream size : 742 MiB (87%)
Audio #192
ID : 192 (0xC0)
Format : MPEG Audio
Format version : Version 1
Format profile : Layer 2
Duration : 2h 10mn
Bit rate mode : Constant
Bit rate : 96.0 Kbps
Channel(s) : 2 channels
Sampling rate : 48.0 KHz
Compression mode : Lossy
Stream size : 89.6 MiB (11%)
Ripper : Deshi Digital Dhoom
Seeding 24x7... Extreme Seeding...
Enjoy!

Related Torrents

torrent name size files age seed leech

Sharing Widget


Download torrent
848.2 MB
seeders:10
leechers:6
Barfi! (2012)(Audio Cleaned) - SCam Rip - MPEG-PS.mpg

Trackers

tracker name Status checked seeders leechers downloads
udp://tracker.openbittorrent.com:80/announce
outdated 22 Feb 2013 - - -
udp://tracker.publicbt.com:80/announce
outdated 22 Feb 2013 - - -
udp://tracker.istole.it:80/announce
outdated 22 Feb 2013 - - -
udp://tracker.1337x.org:80/announce
outdated 22 Feb 2013 - - -
http://exodus.desync.com:6969/announce
blocked 22 Feb 2013 - - -
udp://fr33domtracker.h33t.com:3310/announce
deleted 22 Feb 2013 - - -
ĀµTorrent compatible trackers list

Locations

name
KickassTorrents
Torrent hash: 580F077E8C8DFFBA6F5508010585FB34B810DAB3

All Comments

audio
3/10
video
4/10
please, leave only comments related to that torrent
or sign-in
1
anonymous • 24 September 2012, 18:14 Show comment
audio: 4video: 2
Below Standard!
1
anonymous • 20 September 2012, 11:19 Show comment
audio: 1video: 1
1
anonymous • 17 September 2012, 19:45 Show comment
yo yo men
1
anonymous • 17 September 2012, 15:05 Show comment
Hws the print?
0
Mihawk1546 • 16 September 2012, 14:51
torrent downloaded
Show comment
audio: 5video: 6
I think only three actor know how to make movie.
Hritik Roshan
Aamir Khan
And
Ranbir Kapoor
0
anonymous • 16 September 2012, 14:00 Show comment
audio: 5video: 10
0
anonymous • 16 September 2012, 11:51 Show comment
its very good print
0
anonymous • 16 September 2012, 05:21 Show comment
audio: 2video: 2
waste of time..
0
anonymous • 16 September 2012, 01:06 Show comment
audio: 2video: 1
0
anonymous • 16 September 2012, 00:53 Show comment
nice
Show More All

User Opinions

Report a bug