Bad Ass 2012 VODRiP AC3-2 0 XviD-SiC

seeders: 23
leechers: 2
Added on Apr 13, 2012 by legend65.13K in Movies
Torrent verified. Downloaded 10 times.

Summary:
A Vietnam veteran who becomes a local hero after saving a man from attackers on a city bus decides to take action when his best friend is murdered and the police show little interest in solving the crime.
Written by MoonChild12.4K
report summary
Bad Ass 2012 VODRiP AC3-2 0 XviD-SiC (Size: 1.35 GB)
  Bad.Ass.2012.VODRiP.AC3-2.0.XviD-SiC.nfo 7.78 KB
  Bad.Ass.2012.VODRiP.AC3-2.0.XviD-SiC.avi 1.33 GB
  Torrent downloaded from extratorrent.com.txt 353 bytes
  SAMPLE

Description



image
IMDB Link:
http://www.imdb.com/title/tt1928330/ [rate:no votes] unknown votes
Description:
A Vietnam veteran who becomes a local hero after saving a man from attackers on a city bus decides to take action when his best friend is murdered and the police show little interest in solving the crime.
MediaInfo:
General
Complete name : Bad.Ass.2012.VODRiP.AC3-2.0.XviD-SiC.avi
Format : AVI
Format/Info : Audio Video Interleave
File size : 1.33 GiB
Duration : 1h 30mn
Overall bit rate : 2 118 Kbps
Video
ID : 0
Format : MPEG-4 Visual
Format profile : Advanced Simple@L5
Format settings, BVOP : 2
Format settings, QPel : No
Format settings, GMC : No warppoints
Format settings, Matrix : Default (H.263)
Muxing mode : Packed bitstream
Codec ID : XVID
Codec ID/Hint : XviD
Duration : 1h 30mn
Bit rate : 1 854 Kbps
Width : 720 pixels
Height : 400 pixels
Display aspect ratio : 16:9
Frame rate : 23.976 fps
Color space : YUV
Chroma subsampling : 4:2:0
Bit depth : 8 bits
Scan type : Progressive
Compression mode : Lossy
Bits/(Pixel*Frame) : 0.269
Stream size : 1.17 GiB (88%)
Writing library : XviD 1.1.2 (UTC 2006-11-01)
Audio
ID : 1
Format : AC-3
Format/Info : Audio Coding 3
Mode extension : CM (complete main)
Codec ID : 2000
Duration : 1h 30mn
Bit rate mode : Constant
Bit rate : 256 Kbps
Channel(s) : 2 channels
Channel positions : Front: L R
Sampling rate : 48.0 KHz
Bit depth : 16 bits
Compression mode : Lossy
Stream size : 165 MiB (12%)
Alignment : Aligned on interleaves
Interleave, duration : 64 ms (1.53 video frames)
Interleave, preload duration : 192 ms
Title : badass
image
image
image
image

Related Torrents

torrent name size files age seed leech

Sharing Widget


Download torrent
1.35 GB
seeders:23
leechers:2
Bad Ass 2012 VODRiP AC3-2 0 XviD-SiC

Trackers

tracker name Status checked seeders leechers downloads
udp://tracker.openbittorrent.com:80/announce
outdated 02 Nov 2014 - - -
udp://tracker.publicbt.com:80/announce
outdated 02 Nov 2014 - - -
http://secure.pow7.com/announce
outdated 24 Sep 2013 - - -
udp://tracker.istole.it:80/announce
outdated 24 Sep 2013 - - -
udp://tracker.1337x.org:80/announce
outdated 24 Sep 2013 - - -
http://exodus.desync.com:6969/announce
blocked 24 Sep 2013 - - -
http://fr33dom.h33t.com:3310/announce
deleted 24 Sep 2013 - - -
udp://tracker.novalayer.org:6969/announce
pending 24 Sep 2013 0 0 0
ĀµTorrent compatible trackers list

Locations

name
KickassTorrents
ThePirateBay
ExtraTorrent
Torrent hash: 1E728501E4E7757A1B4E4AAC660944F25AC763C8

Top Comments

24
zombicidal1872 • 13 Apr 2012, 22:01
torrent downloaded
audio: 10video: 10
great rip legend
good to see a movie without false advertising...he IS a badass
a10 v10
this film is seriously sick or very very good (if you aint with the street lingo)
lol
12
phcon7419 • 14 Apr 2012, 01:29
torrent downloaded
audio: 8video: 8
looks good thanks for the share
3
nik26342 • 14 Apr 2012, 10:04
torrent downloaded
audio: 8video: 8
not as good as expected from a file of this size.....but quiet watchable....thanks uploader

All Comments

audio
8/10
video
8/10
please, leave only comments related to that torrent
or sign-in
0
BrainDrain875 • 06 January 2014, 04:18
torrent downloaded
Show comment
audio: 9video: 9
Thanks legend65.13K for uploading
0
icthus21432 • 16 September 2013, 22:59
torrent downloaded
Show comment
fast dl!
0
bigdawg020300 • 23 July 2013, 02:57
torrent downloaded
Show comment
audio: 10video: 10
cheers!
0
Dark_Messiah6 • 25 February 2013, 22:05
torrent downloaded
Show comment
Excellent 10/10
0
anonymous • 15 February 2013, 00:36 Show comment
audio: 1video: 1
it didn`t open and installed a virus in my computer. now i can`t run any movies
0
anonymous • 09 March 2013, 15:01 Show comment
audio: 1video: 1
so fuck off retard,don't give a:1 v:1 because your computer sucks.fucking moron
0
anonymous • 05 June 2013, 20:42 Show comment
thats from all the porn ur watching budda ..

0
Ace88K48 • 12 February 2013, 19:07
torrent downloaded
Show comment
audio: 9video: 8
you can watch this film once but not agian
0
jarnjas444 • 31 January 2013, 20:29
torrent downloaded
Show comment
thanks
0
DaGaMs231 • 10 December 2012, 18:19
torrent downloaded
Show comment
audio: 9video: 9
shit film, but good copy. Thanks uploader.
0
Sting29692559 • 05 December 2012, 10:54
torrent downloaded
Show comment
audio: 9video: 9
Good Rip and Good Movie Thanks Up-loader
0
anonymous • 05 November 2012, 02:57 Show comment
Good Picture quality and great sound but a terrible movie, but thank you so much your efforts.
Show More All

User Opinions

Negenius4124, mosthated24912349, sommelier1546, chatty461001, jkarp1728, namwen608, Yakuza_bosS276, steveo77276, buggs53246, sune43 ... And 986 more
electsub2748, Sange2501, Queen131801, spun11779, statueofmike646, morgstar525, brandonfromohio319, prasurocks168, mercury7587, outdoorstraveler11 ... And 48 more
Report a bug