Advertising (remove)

Babes - Tiffany Thompson - Teenage Romance

seeders: 0
leechers: 0
Added on Nov 23, 2012 by ponklay6964 in XXX > Video
Torrent verified. Downloaded 0 times.

Babes - Tiffany Thompson - Teenage Romance (Size: 325.96 MB)
  Babes_Tiffany_Thompson_Teenage_Romance_720p.mp4 325.96 MB
Advertising (remove)

Description

Screens:
http://imgchili.com/show/21741/21741716_104.jpg
http://imgchili.com/show/217...588_babes_tiffany_thomps.jpg

Babes_Tiffany_Thompson_Teenage_Romance_720p.mp4
Format : MPEG-4
Format profile : Base Media
Codec ID : isom
File size : 326 MiB
Duration : 10mn 39s
Overall bit rate : 4 279 Kbps
Writing application : Lavf54.25.105

Video
ID : 1
Format : AVC
Format/Info : Advanced Video Codec
Format profile : High@L4.1
Format settings, CABAC : Yes
Format settings, ReFrames : 5 frames
Codec ID : avc1
Codec ID/Info : Advanced Video Coding
Duration : 10mn 38s
Bit rate : 4 000 Kbps
Width : 1 280 pixels
Height : 720 pixels
Display aspect ratio : 16:9
Frame rate mode : Constant
Frame rate : 29.970 fps
Color space : YUV
Chroma subsampling : 4:2:0
Bit depth : 8 bits
Scan type : Progressive
Bits/(Pixel*Frame) : 0.145
Stream size : 302 MiB (93%)
Writing library : x264 core 125 r2208 d9d2288
Encoding settings : cabac=1 / ref=5 / deblock=1:0:0 / analyse=0x3:0x113 / me=umh / subme=8 / psy=1 / psy_rd=1.00:0.00 / mixed_ref=1 / me_range=16 / chroma_me=1 / trellis=1 / 8x8dct=1 / cqm=0 / deadzone=21,11 / fast_pskip=1 / chroma_qp_offset=-2 / threads=6 / lookahead_threads=1 / sliced_threads=0 / nr=0 / decimate=1 / interlaced=0 / bluray_compat=0 / constrained_intra=0 / bframes=3 / b_pyramid=2 / b_adapt=2 / b_bias=0 / direct=3 / weightb=1 / open_gop=0 / weightp=2 / keyint=60 / keyint_min=6 / scenecut=40 / intra_refresh=0 / rc_lookahead=50 / rc=abr / mbtree=1 / bitrate=4000 / ratetol=1.0 / qcomp=0.60 / qpmin=0 / qpmax=69 / qpstep=4 / ip_ratio=1.40 / aq=1:1.00
Language : English
Tagged date : UTC 2012-10-06 08:36:45

Audio
ID : 2
Format : AAC
Format/Info : Advanced Audio Codec
Format profile : LC
Codec ID : 40
Duration : 10mn 39s
Duration_LastFrame : -9ms
Bit rate mode : Constant
Bit rate : 128 Kbps
Channel(s) : 2 channels
Channel positions : Front: L R
Sampling rate : 48.0 KHz
Compression mode : Lossy
Stream size : 9.75 MiB (3%)
Language : English
Tagged date : UTC 2012-10-06 08:36:45

Related Torrents

torrent name size files age seed leech

Sharing Widget


Download torrent
325.96 MB
seeders:0
leechers:0
Babes - Tiffany Thompson - Teenage Romance

Trackers

tracker name Status checked seeders leechers downloads
udp://tracker.istole.it:80/announce
outdated 08 Jul 2014 - - -
udp://tracker.publicbt.com:80/announce
outdated 08 Jul 2014 - - -
udp://tracker.openbittorrent.com:80/announce
outdated 08 Jul 2014 - - -
udp://tracker.1337x.org:80/announce
outdated 18 Jun 2013 - - -
http://tracker.torrentbay.to:6969/announce
outdated 18 Jun 2013 - - -
http://exodus.desync.com:6969/announce
blocked 18 Jun 2013 - - -
udp://fr33dom.h33t.com:3310/announce
deleted 18 Jun 2013 - - -
udp://fr33domtracker.h33t.com:3310/announce
deleted 18 Jun 2013 - - -
http://fr33dom.h33t.com:3310/announce
deleted 18 Jun 2013 - - -
udp://tracker.yify-torrents.com:80/announce
pending 08 Jul 2014 2 8 10
µTorrent compatible trackers list

Locations

name
KickassTorrents
Torrent hash: A78E7B8E596D7FC75F07F8B755F03E489EB6DAC3

All Comments

audio
8/10
video
8/10
please, leave only comments related to that torrent
or sign-in
0
slaywee13.85K • 02 June 2014, 21:26
torrent downloaded
Show comment
audio: 8video: 8
nice
0
dr.saurabh537 • 14 February 2013, 04:54
torrent downloaded
Show comment
thanks !!!
0
anonymous • 26 December 2012, 02:16 Show comment
its not working properly in vlc
0
anonymous • 08 December 2012, 11:53 Show comment
She is a fox but doesn't git the load in her mouth.
0
kaleidoscopio349 • 23 November 2012, 19:53
torrent downloaded
Show comment
Thank you¡¡

User Opinions

slaywee13.85K, kanada6251, Caspian.Troy4548, cvdpost1718, darthsoth887, dada7795538, dr.saurabh537, cemkenter504, weng_cas432, Jhan08129 ... And 18 more
GunnZx232188, FourthEstate95
Report a bug