Zookeeper 2011 R5 Cam Audio Xvid-SiC

seeders: 0
leechers: 0
Added on Aug 19, 2011 in Movies
Torrent verified. Downloaded 0 times.

Zookeeper 2011 R5 Cam Audio Xvid-SiC (Size: 1018.27 MB)
  Speed.cd read me.txt 47 bytes
  www.Speed.Cd.txt 47 bytes
  Zookeeper.2011.R5.Cam.Audio.Xvid-SiC.avi 1010.33 MB
  Zookeeper.2011.R5.Cam.Audio.Xvid-SiC.nfo 6.96 KB
  Zookeeper.2011.R5.Cam.Audio.Xvid-SiC.Sample.avi 7.94 MB

Description

-
http://www.Speed.Cd

http://www.Speed.Cd fast and The Hottest Private Tracker on the net

(((--Submit for invite!!--)))

Please Seed back to make the speed Faster!!!

------------------nfo--------------------------
-










Zookeeper.2011.R5.Cam.Audio.Xvid-SiC

Poster:
image

IMDB Link:
http://www.imdb.com/title/tt1222817/

Description:
A group of zoo animals decide to break their code of silence in order to help
their lovable zoo keeper find love -- without opting to leave his current job
for something more illustrious.

MediaInfo:
General
Complete name : Zookeeper.2011.R5.Cam.Audio.Xvid-SiC.avi
Format : AVI
Format/Info : Audio Video Interleave
File size : 1 010 MiB
Duration : 1h 37mn
Overall bit rate : 1 447 Kbps

Video
ID : 0
Format : MPEG-4 Visual
Format profile : Advanced Simple@L5
Format settings, BVOP : Yes
Format settings, QPel : No
Format settings, GMC : No warppoints
Format settings, Matrix : Default (H.263)
Muxing mode : Packed bitstream
Codec ID : XVID
Codec ID/Hint : XviD
Duration : 1h 37mn
Bit rate : 1 329 Kbps
Width : 720 pixels
Height : 304 pixels
Display aspect ratio : 2.35:1
Frame rate : 25.000 fps
Resolution : 8 bits
Colorimetry : 4:2:0
Scan type : Progressive
Bits/(Pixel*Frame) : 0.243
Stream size : 928 MiB (92%)
Writing library : XviD 64

Audio
ID : 1
Format : MPEG Audio
Format version : Version 1
Format profile : Layer 3
Codec ID : 55
Codec ID/Hint : MP3
Duration : 1h 37mn
Bit rate mode : Constant
Bit rate : 112 Kbps
Channel(s) : 2 channels
Sampling rate : 44.1 KHz
Stream size : 78.2 MiB (8%)
Alignment : Aligned on interleaves
Interleave, duration : 160 ms (4.00 video frames)
Interleave, preload duration : 208 ms
Title : 2ch English

Screenshots:
image
image
image
image
image
image

Note : N/A

Source : DVDR dvd5-Russian Thanks!

Audio Source: TaRiQ786-ERDNA Thanks!

Encoder: Bezauk

Enjoy!

Respects to CaptainHomey, Cyanide, CM8, Rx, THC, ELEKTRI4KA,
Killerhz, PA, YeFsTe, BoxSlots, MrRep and everyone in the struggle...

Related Torrents

torrent name size files age seed leech

Sharing Widget


Download torrent
1018.27 MB
seeders:0
leechers:0
Zookeeper 2011 R5 Cam Audio Xvid-SiC

Trackers

tracker name Status checked seeders leechers downloads
udp://tracker.publicbt.com:80/announce
outdated 19 Aug 2011 - - -
http://tracker.openbittorrent.com/announce
outdated 19 Aug 2011 - - -
udp://tracker.openbittorrent.com:80/announce
outdated 19 Aug 2011 - - -
http://tracker.publicbt.com/announce
deleted 19 Aug 2011 - - -
ĀµTorrent compatible trackers list

Locations

name
ThePirateBay
Limetorrents
Torrent hash: 11b4ad423f9087bb02815295b6684a766941301a

All Comments

audio
0/10
video
0/10
please, leave only comments related to that torrent
or sign-in
Report a bug