Zombieland 2009 DVDRip XviD{1337x}-Fallen

seeders: 0
leechers: 1
Added on Dec 30, 2009 by anonymous in Movies
Torrent verified. Downloaded 0 times.

Summary:
A shy student trying to reach his family in Ohio, a gun-toting tough guy trying to find the last Twinkie, and a pair of sisters trying to get to an amusement park join forces to travel across a zombie-filled America.
Submitted by ROBBREDD698534
report summary
Zombieland 2009 DVDRip XviD{1337x}-Fallen (Size: 714.83 MB)
  Sample
  zombieland-fallen.avi 706.79 MB
  fallen.nfo 3.34 KB

Description

image

-------------------------------------------------------------------------------------------

Zombieland.2009.dvdrip.xvid{1337}-Fallen



== Movie Info ==



IMDB Link..........:: http://www.imdb.com/title/tt1156398/
/>
Ratings............:: 8.0/10 42,453 votes

Genre..............:: Action | Comedy | Horror

Director...........:: Ruben Fleischer

Release Date.......:: October 2nd, 2009



== Plot ==



The horror comedy Zombieland focuses on two men who have found a

way to survive a world overrun by zombies



== Main Cast ==



Woody Harrelson    ...     Tallahassee



Jesse Eisenberg    ...     Columbus



Emma Stone    ...     Wichita



Abigail Breslin    ...     Little Rock



Amber Heard    ...     406



Bill Murray    ...     Himself



Derek Graf    ...     Clown Zombie



== General Details ==



Release Name.......:: Zombieland.2009.DVDRip.XviD{1337x}-Fallen

File Name..........:: Zombieland-Fallen

Sample Included....:: Yes

Filesize...........:: 700 MB

Source.............:: DVDR Bow

Format.............:: XviD | AVI

Runtime............:: 88 min

Language...........:: English



== Video Data ==



ID                               : 0

Format                           : MPEG-4 Visual

Format profile                   : AdvancedSimple@L5

Format settings, BVOP            : Yes

Format settings, QPel            : No

Format settings, GMC             : No warppoints

Format settings, Matrix          : Default (H.263)

Muxing mode                      : Packed bitstream

Codec ID                         : XVID

Codec ID/Hint                    : XviD

Duration                         : 1h 27mn

Bit rate                         : 989 Kbps

Width                            : 624 pixels

Height                           : 256 pixels

Display aspect ratio             : 2.40:1

Frame rate                       : 23.976 fps

Resolution                       : 24 bits

Colorimetry                      : 4:2:0

Scan type                        : Progressive

Bits/(Pixel*Frame)               : 0.258

Stream size                      : 621 MiB (88%)

Writing library                  : XviD 1.2.1 (UTC 2008-12-04)



== Audio Data ==



ID                               : 1

Format                           : MPEG Audio

Format version                   : Version 1

Format profile                   : Layer 3

Format settings, Mode            : Joint stereo / MS Stereo

Codec ID                         : 55

Codec ID/Hint                    : MP3

Duration                         : 1h 27mn

Bit rate mode                    : Constant

Bit rate                         : 128 Kbps

Channel(s)                       : 2 channels

Sampling rate                    : 48.0 KHz

Resolution                       : 16 bits

Stream size                      : 80.3 MiB (11%)

Alignment                        : Aligned on interleaves

Interleave, duration             : 42 ms (1.00 video frame)

Interleave, preload duration     : 504 ms





== Notes ==

Ok here is a new movie called Zombieland enjoy, did the usual work to it.



== Screenshots ==



image

image

image

image



== Greets ==

1337x and other p2p sharing groups keep rockin!



Check this profile to varify my releases

http://1337x.org/user/fallen/

Sharing Widget


Download torrent
714.83 MB
seeders:0
leechers:1
Zombieland 2009 DVDRip XviD{1337x}-Fallen

Trackers

tracker name Status checked seeders leechers downloads
http://tracker.openbittorrent.com/announce
outdated 02 May 2010 - - -
udp://tracker.publicbt.com:80/announce
outdated 30 Dec 2009 - - -
udp://tracker.openbittorrent.com:80/announce
outdated 30 Dec 2009 - - -
http://tracker.publicbt.com/announce
deleted 06 Jun 2011 - - -
µTorrent compatible trackers list

Locations

name
KickassTorrents
ExtraTorrent
Torrent hash: 223da992a9d8fb141c557698f99f0c843e5d42e4

All Comments

audio
0/10
video
0/10
please, leave only comments related to that torrent
or sign-in
Report a bug