Yogi Bear 2010 TS H264 Feel-Free

seeders: 10
leechers: 1
Added on Jan 15, 2011 by SaM312.6K in Movies
Torrent verified. Downloaded 59,106 times.

Yogi Bear 2010 TS H264 Feel-Free (Size: 895.89 MB)
  1302067.jpg 28.49 KB
  Torrent downloaded from extratorrent.com.txt 116 bytes
  Yogi.Bear.2010.TS.H264 2.41 KB
  Yogi.Bear.2010.TS.H264.Feel-Free.mp4 894.36 MB
  Yogi.Bear.2010.TS.H264.Feel-Free.mp4_snapshot_00.24.23_[2011.01.14_21.23.21].png 187.01 KB
  Yogi.Bear.2010.TS.H264.Feel-Free.mp4_snapshot_00.29.10_[2011.01.14_21.25.39].png 340.54 KB
  Yogi.Bear.2010.TS.H264.Feel-Free.mp4_thumbs_[2011.01.14_21.22.58].png 930.16 KB
  Yogi.Bear.2010.TS.H264.Feel-Free.srt 77.54 KB

Description

image



Genre:Animation | Adventure | Comedy
Language:English
IMDb:http://www.imdb.com/title/tt1302067/
Source:IMAGINE Thx.
Subtitles:Romana



Format : MPEG-4
Format profile : Base Media
Codec ID : isom
File size : 894 MiB
Duration : 1h 12mn
Overall bit rate : 1 731 Kbps


Video
Codec ID : avc1
Codec ID/Info : Advanced Video Coding
Duration : 1h 12mn
Bit rate mode : Variable
Bit rate : 1 563 Kbps
Width : 720 pixels
Height : 480 pixels
Display aspect ratio : 3:2
Frame rate mode : Constant
Frame rate : 29.970 fps
Original frame rate : 29.000 fps
Standard : NTSC
Color space : YUV
Chroma subsampling : 4:2:0
Bit depth : 8 bits
Scan type : Progressive
Bits/(Pixel*Frame) : 0.151
Stream size : 808 MiB (90%)


Audio
ID : 1
Format : AAC
Format/Info : Advanced Audio Codec
Format version : Version 4
Format profile : LC
Codec ID : 40
Duration : 1h 12mn
Bit rate mode : Constant
Bit rate : 160 Kbps
Channel(s) : 2 channels
Channel positions : Front: L R
Sampling rate : 48.0 KHz
Stream size : 82.7 MiB (9%)
Language : English



Plot:
A documentary filmmaker travels to Jellystone Park to shoot a project and soon crosses paths with Yogi Bear, his sidekick Boo-Boo, and Ranger Smith

TRAILER:http://www.imdb.com/video/imdb/vi2698381593/

image
image
image

Greets:

INK,CRYS,IMAGINE,LKRG,FXG,3Li,FLAWL3SS,TA,ViSiON,LU,TheFalcon007,PrisM,Noir,WBZ,LAP,Rx,Kingdom,SAFCuk009+Fabreezy,HDLiTE,TWiZTED,ExtraTorrentRG.ELEKTRI4KA,MAGNAT,CM8
And to all the other p2p grps past and present




Make sure its a real Feel-Free release http://extratorrent.com

Sharing Widget


Download torrent
895.89 MB
seeders:10
leechers:1
Yogi Bear 2010 TS H264 Feel-Free

Trackers

tracker name Status checked seeders leechers downloads
http://tracker.openbittorrent.com/announce
outdated 18 Jun 2012 - - -
udp://tracker.openbittorrent.com:80/announce
outdated 18 Jun 2012 - - -
udp://tracker.publicbt.com:80/announce
outdated 18 Jun 2012 - - -
http://exodus.1337x.org/announce
outdated 18 Jun 2012 - - -
http://genesis.1337x.org:1337/announce
outdated 18 Jun 2012 - - -
http://nemesis.1337x.org/announce
outdated 18 Jun 2012 - - -
http://tracker.publicbt.com/announce
deleted 11 Mar 2013 - - -
µTorrent compatible trackers list

Locations

name
KickassTorrents
1337x
ThePirateBay
Limetorrents
Limetorrents
Torrent hash: 27a687805555259dd35f6f9d27e6bd8351ddfda6

Top Comments

2
annieschiot122 • 16 Jan 2011, 19:30
torrent downloaded
just played first few minutes and it is the best copy out there I have looked at all the others out there and this is the best so far.. can never go wrong with "feel free" uploads for some reason good upload-er always good stuff thanks got the daughter here today need the yogi mo

All Comments

audio
5/10
video
4/10
please, leave only comments related to that torrent
or sign-in
0
Phoenix675595 • 20 March 2011, 20:25
torrent downloaded
Show comment
audio: 5video: 5
It's a cam, watchable
0
whitewolf19667 • 17 March 2011, 21:35
torrent downloaded
Show comment
audio: 10video: 10
0
chiliyang216 • 17 March 2011, 15:29
torrent downloaded
Show comment
audio: 9video: 9
GOOD A9 V9
0
markozlatni1300 • 16 March 2011, 19:33
torrent downloaded
Show comment
audio: 10video: 10
0
killow13 • 15 March 2011, 19:29
torrent downloaded
Show comment
audio: 1video: 1
shit
0
jkarmann197 • 15 March 2011, 04:05
torrent downloaded
Show comment
definantly cam or ts...for a cam it still kind of sucks...wish r5's and dvdscr's were more easily available for most movies....i should work in a theater on the weekends just because
0
mascot2683 • 11 March 2011, 04:42 Show comment
audio: 7video: 7
thanks nice up
Show More

User Opinions

motherlode7067, EDMoney5710, DjKimoni3788, markozlatni1300, untarock1143, tom_beem910, pacer46397, braddels207, joshjosh87, mr.mikey86 ... And 73 more
thoneya1021, naughty360693, c-bear132, Belizar128, deerheights64, TiRy20, Dragonslayer206519, simon_macbeth10, nat_eilatan5, 1badrewcifer2 ... And 3 more
Report a bug