X-Men First Class 2011 TS V2 XViD-EP1C

seeders: 13
leechers: 5
Added on Jun 5, 2011 by Chris-Aksel9602 in Movies > Highres Movies
Torrent verified by Sc4r3cr0w93.36K, 2 years and 2 months ago. Downloaded 721 times.

Summary:
In 1962, the United States government enlists the help of Mutants with superhuman abilities to stop a malicious dictator who is determined to start world war III.
Submitted by MoonChild9925
report summary
X-Men First Class 2011 TS V2 XViD-EP1C (Size: 1.37 GB)
  sample.avi 5.8 MB
  X-Men.First.Class.2011.TS.V2.XViD-EP1C.avi 1.37 GB
  X-Men.First.Class.2011.TS.V2.XViD-EP1C.nfo 3.73 KB

Description

:::::::::::: EP1C Presents ::::::::::::

::File:: X-Men.First.Class.2011.TS.V2.XViD-EP1C

::Video Source:: Russian (New Source)
::Audio Source:: Own
::Subtitles::::: Hardcoded (Thx IMAGiNE!)

::Language:::::: English
::IMDB:::::::::: http://www.imdb.com/title/tt1270798/

In 1963, Charles Xavier starts up a school and later a team, for humans with superhuman abilities. Among them is Erik Lensherr, his best friend... and future archenemy.

::Specs:::::::::

Format : AVI
Format/Info : Audio Video Interleave
File size : 1.37 GiB
Duration : 2h 3mn
Overall bit rate : 1 589 Kbps
Writing application : VirtualDubMod 1.5.10.2 (build 2542/release)
Writing library : VirtualDubMod build 2542/release

Video
ID : 0
Format : MPEG-4 Visual
Format profile : Advanced Simple@L5
Format settings, BVOP : Yes
Format settings, QPel : No
Format settings, GMC : No warppoints
Format settings, Matrix : Default (H.263)
Muxing mode : Packed bitstream
Codec ID : XVID
Codec ID/Hint : XviD
Duration : 2h 3mn
Bit rate : 1 451 Kbps
Width : 720 pixels
Height : 336 pixels
Display aspect ratio : 2.2:1
Frame rate : 25.000 fps
Color space : YUV
Chroma subsampling : 4:2:0
Bit depth : 8 bits
Scan type : Progressive
Bits/(Pixel*Frame) : 0.240
Stream size : 1.25 GiB (91%)
Writing library : XviD 58

Audio
ID : 1
Format : MPEG Audio
Format version : Version 1
Format profile : Layer 3
Codec ID : 55
Codec ID/Hint : MP3
Duration : 2h 3mn
Bit rate mode : Constant
Bit rate : 128 Kbps
Channel(s) : 2 channels
Sampling rate : 44.1 KHz
Stream size : 113 MiB (8%)
Alignment : Split accross interleaves
Interleave, duration : 40 ms (1.00 video frame)
Interleave, preload duration : 500 ms

::NOTES:::::::::
Presenting Version 2 TS of X-Men, First Class. Different source from v1. Subs
hardcoded for all the foreign parts when needed. Thanks IMAGiNE for the subpack.
Enjoy //EP1C

:: Got something we might be interested in? contact us: epic@hushmail.me ::

:::::::::::::::::::::::::::::::: RESPECT :::::::::::::::::::::::::::::::::
IMAGiNE, Rx, FLAWL3SS, ViSiON, T0XiC, HiVE, bobwhite & All Our Friends!

:::::::::::::::: We Are ::::::::::::::::
:::::: Surpassing the usual or ordinary ::::::
:::::::::::::::::: Heroic and impressive in quality ::::::::::::::::::
:::::::::::::::::::::::::::::::: EP1C ::::::::::::::::::::::::::::::::

Screens :
image
image
image
image
image

Related Torrents

torrent name size files age seed leech

Sharing Widget


Download torrent
1.37 GB
seeders:13
leechers:5
X-Men First Class 2011 TS V2 XViD-EP1C

Trackers

tracker name Status checked seeders leechers downloads
http://tracker.ccc.de/announce
outdated 16 Oct 2012 - - -
http://10.rarbg.com/announce
private 09 May 2012 - - -
http://pow7.com/announce
outdated 09 May 2012 - - -
http://t1.pow7.com/announce
outdated 09 May 2012 - - -
http://tracker.irc.su/announce
outdated 21 Sep 2011 - - -
http://genesis.1337x.org:1337/announce
outdated 13 Jul 2011 - - -
http://exodus.1337x.org/announce
outdated 13 Jul 2011 - - -
http://nemesis.1337x.org/announce
outdated 13 Jul 2011 - - -
http://nyaatorrents.info:3277/announce
outdated 15 Jun 2011 - - -
http://tracker.openbittorrent.com/announce
outdated 05 Jun 2011 - - -
udp://tracker.openbittorrent.com:80/announce
outdated 05 Jun 2011 - - -
udp://tracker.publicbt.com:80/announce
outdated 05 Jun 2011 - - -
http://fr33dom.h33t.com:3310/announce
deleted 20 May 2013 - - -
http://tracker.publicbt.com/announce
deleted 11 Mar 2013 - - -
µTorrent compatible trackers list

Locations

name
KickassTorrents
ThePirateBay
1337x
Limetorrents
ExtraTorrent
Torrent hash: 6C7520B7B42556E3B134B5101D9FE4BE911531EA

Uploader Comments

0
Chris-Aksel9602 • 05 Jun 2011, 18:11
enjoy :)
0
HIPPIE1369666308 • 05 Jun 2011, 19:49
torrent downloaded
audio: 7video: 7
thanks.....but will wait for eng copy
0
Chris-Aksel9602 • 05 Jun 2011, 20:04
it is english

All Comments

audio
7/10
video
6/10
please, leave only comments related to that torrent
or sign-in
0
Porterville755 • 20 July 2011, 07:08
torrent downloaded
Show comment
thanks Chris
0
nia007448 • 15 July 2011, 06:48
torrent downloaded
Show comment
audio: 8video: 8
now i m cleas wht x men r..........
0
anonymous • 09 July 2011, 08:59 Show comment
audio: 1video: 1
0
anonymous • 07 July 2011, 04:25 Show comment
audio: 10video: 9
0
nightmare188843 • 03 July 2011, 13:13
torrent downloaded
Show comment
audio: 8video: 6
0
Captain.Seas.Cruelty1177 • 02 July 2011, 18:19
torrent downloaded
Show comment
audio: 7video: 6
good
0
hatz07143 • 30 June 2011, 20:49
torrent downloaded
Show comment
audio: 7video: 7
thanks ;-)
0
lolzzzz44 • 27 June 2011, 14:52
torrent downloaded
Show comment
thnx for sharing.... good one for a cam :)
Show More

User Opinions

n3rg72047, arturo1821514, VJ19751421, Jordache46727, pyaw74725, OneOldTruck610, elms72701337, tanveer131279, MentalRape204, geradmill117 ... And 66 more
DOA30001302, clay011176, lordahriman1092, ELAI93996, nishant_sohli323, Voritlas142, snuffer117, paoki2063, Xshare51, wicky_lycan10 ... And 5 more
Report a bug