Wrecked 2011 XViD DVDRip DTRG

seeders: 23
leechers: 1
Added on Jul 13, 2011 by DTRG2758 in Movies
Torrent verified. Downloaded 8 times.

  • Movie: Wrecked
  • IMDB link: 1316622
  • Detected quality: DVDRip
  • IMDB rating: 5.1 (5,683 votes)
  • RottenTomatoes: 46% 23%
  • Genres: Drama, Thriller
Available in versions: 1080p720pHDRiPDVDDVDRipiPhone
Wrecked 2011 XViD DVDRip DTRG (Size: 1.16 GB)
  read me.txt 91 bytes
  Torrent downloaded from Demonoid.me.txt 46 bytes
  Wrecked 2011 XViD DVDRip DTRG.avi 1.16 GB

Description

image



image



Format : AVI
Format/Info : Audio Video Interleave
File size : 1.16 GiB
Duration : 1h 29mn
Overall bit rate : 1 855 Kbps
Writing application : VirtualDubMod 1.5.10.2 (build 2540/release)
Writing library : VirtualDub build 32842/release

Video
ID : 0
Format : MPEG-4 Visual
Format profile : Advanced Simple@L5
Format settings, BVOP : 2
Format settings, QPel : No
Format settings, GMC : No warppoints
Format settings, Matrix : Default (H.263)
Muxing mode : Packed bitstream
Codec ID : XVID
Codec ID/Hint : XviD
Duration : 1h 29mn
Bit rate : 1 718 Kbps
Width : 656 pixels
Height : 272 pixels
Display aspect ratio : 2.40:1
Frame rate : 23.976 fps
Color space : YUV
Chroma subsampling : 4:2:0
Bit depth : 8 bits
Scan type : Progressive
Compression mode : Lossy
Bits/(Pixel*Frame) : 0.401
Stream size : 1.08 GiB (93%)
Writing library : XviD 64

Audio
ID : 1
Format : MPEG Audio
Format version : Version 1
Format profile : Layer 3
Mode : Joint stereo
Codec ID : 55
Codec ID/Hint : MP3
Duration : 1h 29mn
Bit rate mode : Constant
Bit rate : 128 Kbps
Channel(s) : 2 channels
Sampling rate : 48.0 KHz
Compression mode : Lossy
Stream size : 82.1 MiB (7%)
Alignment : Aligned on interleaves
Interleave, duration : 42 ms (1.00 video frame)
Interleave, preload duration : 504 ms
Writing library : LAME3.97
Encoding settings : -m j -V 4 -q 2 -lowpass 17 -b 128






http://www.imdb.com/title/tt1316622/




image




Storyline

A man awakens in a mangled car-wreck at the bottom of a steep cliff. Injured and trapped inside, with no memory of how he got there or who he is, he must rely on his most primal instincts to survive. But as he attempts to free himself from the carnage and escape an impossible situation, a darker side is revealed. Even if he manages to survive, the man may have to face the horrible consequences of an earlier, forgotten life.




image




image

image

image






Source Used


Nogrp or scenelovers whichever it is ................. Thanks




Yes its in English



Enjoy





Greetz to IMAGiNE,Flawl3ss,DiLLoN,BDK,NOiR,TOXiC,THC,Ez,Rx,Boobyblue,TaRiQ786,BHRG





image





image



Currently looking for encoders/syncers if anything to offer contact me on dtrg@hush.ai








Related Torrents

torrent name size files age seed leech

Sharing Widget


Download torrent
1.16 GB
seeders:23
leechers:1
Wrecked 2011 XViD DVDRip DTRG

Trackers

tracker name Status checked seeders leechers downloads
http://tracker.istole.it/announce
outdated 26 Oct 2011 - - -
udp://tracker.openbittorrent.com:80/announce
outdated 13 Jul 2011 - - -
http://tracker.openbittorrent.com/announce
outdated 13 Jul 2011 - - -
http://inferno.demonoid.me:3396/announce
outdated 13 Jul 2011 - - -
udp://tracker.istole.it:80/announce
outdated 13 Jul 2011 - - -
udp://tracker.publicbt.com:80/announce
outdated 13 Jul 2011 - - -
http://tracker.publicbt.com/announce
deleted 18 Aug 2011 - - -
http://genesis.1337x.org/announce
error 13 Jul 2011 - - -
µTorrent compatible trackers list

Locations

name
KickassTorrents
Torrent hash: D6630B316F8A32F9007EF00FC211FF9E66069CF6

All Comments

audio
6/10
video
6/10
please, leave only comments related to that torrent
or sign-in
0
mkfatpants3685 • 06 December 2012, 10:09
torrent downloaded
Show comment
audio: 9video: 9
Brilliant
0
anonymous • 04 December 2012, 01:58 Show comment
audio: 2video: 2
awful
0
Intelinside117 • 15 July 2011, 00:59 Show comment
audio: 3video: 3
this is cam qouality NO DVDRip
the title is Fake .waste of time
Overall bit rate: 804 Kbps
Bits/(Pixel*Frame: 0.149
0
dolfo521119 • 14 July 2011, 10:32
torrent downloaded
Show comment
audio: 9video: 9
Great job, thank you
0
Fireman58444403 • 13 July 2011, 19:04
torrent downloaded
Show comment
audio: 8video: 8

User Opinions

Report a bug