Wrath Of The Titans 2012 CAM XviD-KiLL3R

seeders: 0
leechers: 1
Added on Mar 31, 2012 by Scofield500018 in Movies > Highres Movies
Downloaded 152 times.

Wrath Of The Titans 2012 CAM XviD-KiLL3R (Size: 728.18 MB)
  Wrath.Of.The.Titans.2012.CAM.XviD-KiLL3R.avi 728.18 MB

Description

ID : 0
Format : MPEG-4 Visual
Format profile : Advanced Simple@L5
Format settings, BVOP : No
Format settings, QPel : No
Format settings, GMC : No warppoints
Format settings, Matrix : Default (MPEG)
Codec ID : XVID
Codec ID/Hint : XviD
Duration : 1h 30mn
Bit rate : 986 Kbps
Width : 640 pixels
Height : 272 pixels
Display aspect ratio : 1.875
Frame rate : 23.976 fps
Color space : YUV
Chroma subsampling : 4:2:0
Bit depth : 8 bits
Scan type : Progressive
Compression mode : Lossy
Bits/(Pixel*Frame) : 0.236
Stream size : 637 MiB (88%)
Writing library : XviD 64

Audio
ID : 1
Format : MPEG Audio
Format version : Version 1
Format profile : Layer 3
Codec ID : 55
Codec ID/Hint : MP3
Duration : 1h 30mn
Bit rate mode : Constant
Bit rate : 128 Kbps
Channel(s) : 2 channels
Sampling rate : 48.0 KHz
Compression mode : Lossy
Stream size : 82.7 MiB (11%)
Alignment : Aligned on interleaves
Interleave, duration : 24 ms (0.58 video frame)
Writing library : LAME3.99.4

Related Torrents

torrent name size files age seed leech

Sharing Widget


Download torrent
728.18 MB
seeders:0
leechers:1
Wrath Of The Titans 2012 CAM XviD-KiLL3R

Trackers

tracker name Status checked seeders leechers downloads
udp://tracker.publicbt.com:80/announce
outdated 02 Apr 2012 - - -
udp://tracker.openbittorrent.com:80/announce
outdated 02 Apr 2012 - - -
udp://tracker.istole.it:80/announce
outdated 02 Apr 2012 - - -
udp://tracker.1337x.org:80/announce
outdated 02 Apr 2012 - - -
http://exodus.desync.com:6969/announce
blocked 08 Aug 2012 - - -
http://fr33dom.h33t.com:3310/announce
deleted 09 Apr 2013 - - -
ĀµTorrent compatible trackers list

Locations

name
KickassTorrents
Torrent hash: A7DC5C8F7BDF9FCBA52F58F767349326ACAB6287

All Comments

audio
5/10
video
5/10
please, leave only comments related to that torrent
or sign-in
0
mekt7491 • 01 April 2012, 20:39
torrent downloaded
Show comment
audio: 5video: 5
its a bit dark and the sound is bad, but its a cam rip. ill wait for a better copy.

User Opinions

Report a bug