World Invasion, Battle Los Angeles 2011 DVD9rip English Klam

seeders: 0
leechers: 0
Added on Aug 20, 2011 in Movies
Torrent verified. Downloaded 10 times.

World Invasion, Battle Los Angeles 2011 DVD9rip English Klam (Size: 1.75 GB)
  Cover
  Battle Los Angeles.avi 1.75 GB
  www.Film-Test.nl.jpg 35.44 KB
  New Dutch Site.txt 117 bytes
  Torrent downloaded from Demonoid.com.txt 47 bytes

Description

With: Aaron Eckhart, Michelle Rodriguez and Bridget Moynahan

Al jaren worden er over de hele wereld ufoΓΓé¼Γäós waargenomen en gedocumenteerd: Buenos Aires, Seoul, Frankrijk, Duitsland, China. Maar in 2011 worden die vage waarnemingen keiharde werkelijkheid wanneer de aarde wordt aangevallen door onbekende krachten. Terwijl overal ter wereld grote steden worden verwoest, houdt alleen Los Angeles nog stand in een strijd die nooit voor mogelijk werd gehouden. Een sergeant van de Marine (Aaron Eckhart) en zijn nieuwe peloton moeten een halt zien toe te roepen aan een vijand die alles overtreft waar ze ooit tegen hebben gestreden.

A Marine Staff Sergeant who has just had his retirement approved goes back into the line of duty in order to assist a 2nd Lieutenant and his platoon as they fight to reclaim the city of Los Angeles from alien invaders.

------------------ Dutch Friends ------------------
You can find my Friends at: http://www.Film-Test.nl
------ They got my dutchs subs ---- and more ------

General:

Complete name : World Invasion\Battle Los Angeles.avi
Format : AVI
Format/Info : Audio Video Interleave
File size : 1.75 GiB
Duration : 1h 51mn
Overall bit rate : 2 246 Kbps

Video:

Format : MPEG-4 Visual
Format profile : Simple@L3
Format settings, BVOP : No
Format settings, QPel : No
Format settings, GMC : No warppoints
Format settings, Matrix : Default (H.263)
Codec ID : XVID
Codec ID/Hint : XviD
Duration : 1h 51mn
Bit rate : 1 787 Kbps
Width : 720 pixels
Height : 304 pixels
Display aspect ratio : 2.35:1
Frame rate : 25.000 fps
Color space : YUV
Chroma subsampling : 4:2:0
Bit depth : 8 bits
Scan type : Progressive
Bits/(Pixel*Frame) : 0.327
Stream size : 1.39 GiB (80%)
Writing library : XviD 1.1.2 (UTC 2006-11-01)

Audio:

Format : AC-3
Format/Info : Audio Coding 3
Mode extension : CM (complete main)
Codec ID : 2000
Duration : 1h 51mn
Bit rate mode : Constant
Bit rate : 448 Kbps
Channel(s) : 6 channels
Channel positions : Front: L C R, Side: L R, LFE
Sampling rate : 48.0 KHz
Bit depth : 16 bits
Stream size : 357 MiB (20%)
Alignment : Aligned on interleaves
Interleave, duration : 32 ms (0.80 video frame)
Interleave, preload duration : 768 ms

Related Torrents

torrent name size files age seed leech

Sharing Widget


Download torrent
1.75 GB
seeders:0
leechers:0
World Invasion, Battle Los Angeles 2011 DVD9rip English Klam

Trackers

tracker name Status checked seeders leechers downloads
udp://tracker.publicbt.com:80/announce
outdated 16 Aug 2014 - - -
udp://tracker.openbittorrent.com:80/announce
outdated 16 Aug 2014 - - -
http://inferno.demonoid.me:3400/announce
outdated 02 Apr 2013 - - -
http://tracker.openbittorrent.com/announce
outdated 02 Apr 2013 - - -
http://pow7.com/announce
outdated 02 Apr 2013 - - -
http://10.rarbg.com/announce
private 02 Apr 2013 - - -
http://tracker.torrentbay.to:6969/announce
outdated 02 Apr 2013 - - -
udp://tracker.ilibr.org:6969/announce
blocked 20 Aug 2011 - - -
http://tracker.publicbt.com/announce
deleted 02 Apr 2013 - - -
http://torrentbay.to:6969/announce
error 20 Aug 2011 - - -
µTorrent compatible trackers list

Locations

name
ThePirateBay
Limetorrents
Torrent hash: b51d4e79947461b409fcb0ae2e0b9b293f512d77

All Comments

audio
7/10
video
7/10
please, leave only comments related to that torrent
or sign-in
0
ChairmanMeow27.73K • 13 January 2013, 21:36
torrent downloaded
Show comment
audio: 8video: 8
Thanks
0
lenoir50021859 • 10 November 2012, 05:32
torrent downloaded
Show comment
audio: 7video: 7
Surprisingly good quality

User Opinions

ChairmanMeow27.73K, jase11723282, Petrina11927, shanky_007624, gjulius553, Slingblade760443, HY8163, NotAHacker135, sokrates28, emill14 ... And 1 more
blackbi7155, chezzy522
Report a bug