When in Rome TS XViD - IMAGiNE

seeders: 1
leechers: 0
Added on Apr 12, 2010 in Movies
Torrent verified. Downloaded 74 times.

Summary:
Beth is a young, ambitious New Yorker who is completely unlucky in love. However, on a whirlwind trip to Rome, she impulsively steals some coins from a reputed fountain of love, and is then aggressively pursued by a band of suitors.
Submitted by 5fingerdis47.06K
report summary
When in Rome TS XViD - IMAGiNE (Size: 679.44 MB)
  read-me.txt 420 bytes
  sample.avi 5.87 MB
  When in Rome TS XViD - IMAGiNE.nfo 4.92 KB
  WIRI.part01.rar 14.31 MB
  WIRI.part01.sfv 3.79 KB
  WIRI.part02.rar 14.31 MB
  WIRI.part03.rar 14.31 MB
  WIRI.part04.rar 14.31 MB
  WIRI.part05.rar 14.31 MB
  WIRI.part06.rar 14.31 MB
  WIRI.part07.rar 14.31 MB
  WIRI.part08.rar 14.31 MB
  WIRI.part09.rar 14.31 MB
  WIRI.part10.rar 14.31 MB
  WIRI.part11.rar 14.31 MB
  WIRI.part12.rar 14.31 MB
  WIRI.part13.rar 14.31 MB
  WIRI.part14.rar 14.31 MB
  WIRI.part15.rar 14.31 MB
  WIRI.part16.rar 14.31 MB
  WIRI.part17.rar 14.31 MB
  WIRI.part18.rar 14.31 MB
  WIRI.part19.rar 14.31 MB
  WIRI.part20.rar 14.31 MB
  WIRI.part21.rar 14.31 MB
  WIRI.part22.rar 14.31 MB
  WIRI.part23.rar 14.31 MB
  WIRI.part24.rar 14.31 MB
  WIRI.part25.rar 14.31 MB
  WIRI.part26.rar 14.31 MB
  And 22 files more

Description

www . Torrentday . com - Your Key To The Scene.


www . Torrentday . com : Clean RAR Scene Releases!


Enjoy =)

...................................NFO:....................................

. *********** **** **** *** ******** *********** **** *** **********
*+* +*+*+* *+*+*+ *+* *+* *+* *+* *+* *+*+* *+* *+*
+*+ +*+ +*+*+ +*+ +*+ +*+ +*+ +*+ *+*+*+ +*+ +*+
+$+ +$+ +*+ +$+ +$++*++$++* *$* +$+ +$+ +*+ +$+ +$++*++$
+$+ +$+ +$+ +$+ +$+ +$+ +$+$ +$+ +$+ +$+$+$ +$+
$+$ $+$ $+$ $+$ $+$ $+$ $+$ $+$ $+$ $+$+$ $+$
$$$$$$$$$$$ $$$ $$$ $$$ $$$ $$$$$$$$ $$$$$$$$$$$ $$$ $$$$ $$$$$$$$$$




Another Fine Release Brought to you from - IMAGiNE
http://imaginegroup.me/

********************************************************************************************************************
When in Rome CAM XViD - IMAGiNE
********************************************************************************************************************

Ripper ...........: IMAGiNE IMDB Rating.......:5.2/10
Video Codec.......: XVID Release Date......:23/02/10
Audio Codec.......:MP3 Theatre Date......:29/01/10
Audio Bitrate.....:128 Runtime.......:1h 24mn
Subtitles.........:NIL Language..........:ENGLISH
Resolution...... 704 x 288 IMDb URL..........:http://www.imdb.com/title/tt1185416/


DETAILS:

Video
ID : 0
Format : MPEG-4 Visual
Format profile : Advanced Simple@L5
Format settings, BVOP : Yes
Format settings, QPel : No
Format settings, GMC : No warppoints
Format settings, Matrix : Default (MPEG)
Muxing mode : Packed bitstream
Codec ID : XVID
Codec ID/Hint : XviD
Duration : 1h 24mn
Bit rate : 1 032 Kbps
Width : 704 pixels
Height : 288 pixels
Display aspect ratio : 2.444
Frame rate : 25.000 fps
Resolution : 24 bits
Colorimetry : 4:2:0
Scan type : Progressive
Bits/(Pixel*Frame) : 0.204
Stream size : 622 MiB (95%)
Writing library : XviD 1.2.1 (UTC 2008-12-04)

Audio
ID : 0
Format : MPEG Audio
Format version : Version 1
Format profile : Layer 3
Codec ID : 55
Codec ID/Hint : MP3
Duration : 1h 24mn
Bit rate mode : Constant
Bit rate : 128 Kbps
Channel(s) : 2 channels
Sampling rate : 44.1 KHz
Resolution : 16 bits
Stream size : 77.2 MiB (100%)


NOTES:

IMAGiNE bringing you another release.....
Here's our v2 of when in rome....sources used are the russian cam (thanks) and our own line audio.

The video was another one of them "blue" coloured releases :( and there is several camera
movements through.
Work done,firstly we synced our line audio, The video we needed to play with the colouring and yet again we get one
part looking good, then theres other scenes that aren't as good :( Anyway done the best we could and also sharpened and
cleaned up the video a touch aswell.The video also contains some glare and is worse in some scenes than others.....toned
the glares down the best we could without making the film too dull.

Enjoy :)

SCREENS:

image
image
image
image


GREETS:

FLAWL3SS,ViSiON,DEViSE,FUSiON,STG,SecretMyth,BirdFlu,ELEKTRI4KA
And to all the other p2p grps past and present

Special thanks to Python-Lair for the server :)
And special thanks to supreme-speeds.com for the ripbox :)

[COLOR=RED]Looking for these,syncers,cammer,silver supplier.....Have anything to offer????......
Contact us imaginegroup@hushmail.com

Related Torrents

torrent name size files age seed leech

Sharing Widget


Download torrent
679.44 MB
seeders:1
leechers:0
When in Rome TS XViD - IMAGiNE

Trackers

tracker name Status checked seeders leechers downloads
http://genesis.1337x.org:1337/announce
outdated 13 Jul 2011 - - -
http://tracker.openbittorrent.com/announce
outdated 02 May 2010 - - -
udp://tracker.publicbt.com:80/announce
outdated 12 Apr 2010 - - -
udp://tracker.openbittorrent.com:80/announce
outdated 12 Apr 2010 - - -
http://tracker.publicbt.com/announce
deleted 17 Aug 2011 - - -
ยตTorrent compatible trackers list

Locations

name
ThePirateBay
Torrentzap
ExtraTorrent
Torrent hash: b6e6976b463be4e45da0c621a8643b6ccf8becfa

All Comments

audio
0/10
video
0/10
please, leave only comments related to that torrent
or sign-in
0
mcfloyd1244 • 05 May 2010, 21:13
torrent downloaded
Show comment
v6-6.5/a7-7.5

User Opinions

mcfloyd1244
Report a bug