When In Rome 2010 BDRip x264 AC3-SiC

seeders: 3
leechers: 1
Added on Dec 14, 2011 in Movies
Torrent verified. Downloaded 56 times.

When In Rome 2010 BDRip x264 AC3-SiC (Size: 1.38 GB)
  Speed.cd read me .txt 47 bytes
  When.In.Rome.2010.BDRip.x264.AC3-SiC-Sample.mkv 11.56 MB
  When.In.Rome.2010.BDRip.x264.AC3-SiC.mkv 1.37 GB
  When.In.Rome.2010.BDRip.x264.AC3-SiC.nfo 7.29 KB
  www.Speed.Cd.txt 47 bytes

Description

-
http://www.Speed.Cd fast and The Hottest Private Tracker on the net

(((--Submit for invite!!--)))

Please Seed back to make the speed Faster!!!

------------------nfo--------------------------
-
















































Poster:
image

IMDB Link:
http://www.imdb.com/title/tt1185416

Description:
After fishing out coins from a water fountain in Italy, cynical New Yorker Beth Harper finds herself being wooed by several ardent suitors. As she deals with the attention, Beth tries to figure out whether a charming reporter really loves her.

General
Complete name : When.In.Rome.2010.BDRip.x264.AC3-SiC.mkv
Format : Matroska
Format version : Version 2
File size : 1.37 GiB
Duration : 1h 30mn
Overall bit rate : 2 160 Kbps
Writing library : libmkv 0.6.4.1

Video
ID : 1
Format : AVC
Format/Info : Advanced Video Codec
Format profile : High@L3.0
Format settings, CABAC : Yes
Format settings, ReFrames : 4 frames
Codec ID : V_MPEG4/ISO/AVC
Duration : 1h 30mn
Bit rate : 1 771 Kbps
Width : 720 pixels
Height : 304 pixels
Display aspect ratio : 2.35:1
Frame rate mode : Variable
Frame rate : 23.976 fps
Color space : YUV
Chroma subsampling : 4:2:0
Bit depth : 8 bits
Scan type : Progressive
Bits/(Pixel*Frame) : 0.337
Stream size : 1.10 GiB (80%)
Writing library : x264 core 112
Language : English
Default : Yes
Forced : No

Audio
ID : 2
Format : AC-3
Format/Info : Audio Coding 3
Mode extension : CM (complete main)
Codec ID : A_AC3
Duration : 1h 30mn
Bit rate mode : Constant
Bit rate : 384 Kbps
Channel(s) : 6 channels
Channel positions : Front: L C R, Side: L R, LFE
Sampling rate : 48.0 KHz
Bit depth : 16 bits
Compression mode : Lossy
Stream size : 249 MiB (18%)
Language : English
Default : Yes
Forced : No

Screenshots:
image
image
image
image
image
image
image
image

Note: Usual Stuff, very nice rip ;)

Source: Ours

Enjoy!

Respects to T00NG0D, ELEKTRI4KA, PA, YeFsTe, Box, MrRep and everyone in the struggle...

Related Torrents

torrent name size files age seed leech

Sharing Widget


Download torrent
1.38 GB
seeders:3
leechers:1
When In Rome 2010 BDRip x264 AC3-SiC

Trackers

tracker name Status checked seeders leechers downloads
http://tracker.torrentbay.to:6969/announce
outdated 02 Dec 2012 - - -
udp://tracker.publicbt.com:80/announce
outdated 12 Mar 2012 - - -
udp://tracker.openbittorrent.com:80/announce
outdated 12 Mar 2012 - - -
http://tracker.openbittorrent.com/announce
outdated 12 Mar 2012 - - -
http://tracker.publicbt.com/announce
deleted 11 Mar 2013 - - -
ĀµTorrent compatible trackers list

Locations

name author
ThePirateBay sceneline
Limetorrents
Torrent hash: b74ad04a43c6e0f0e0375f4518a056410e2b5186

All Comments

audio
0/10
video
0/10
please, leave only comments related to that torrent
or sign-in

User Opinions

Report a bug