Werewolf The Beast Among Us (2012).Unrated.720p.[Dual Audio] [Hindi+English].by K@rtik [ExD Exclusive]

seeders: 1
leechers: 2
Added on Oct 27, 2012 by nehakartik2194 in Movies > Highres Movies
Torrent verified. Downloaded 10 times.

Available in versions: 1080p720pBlu-RayBDRipHDRiPDVDDVDRip
Werewolf The Beast Among Us (2012).Unrated.720p.[Dual Audio] [Hindi+English].by K@rtik [ExD... (Size: 798.88 MB)
  Sample
  Werewolf The Beast Among Us (2012).Unrated.720p.[Dual Audio] [Hindi+English].by K@rtik [ExD... 782.11 MB
  Cover.jpg 1.4 MB
  Werewolf The Beast Among Us (2012).Unrated.720p.[Dual Audio] [Hindi+English].by K@rtik [ExD... 54.69 KB

Description

image


image


image


image
image
image
image
image
image
image
image
image
image
image


image


[font="Book Antiqua">Rip Information[/font]

Format : Matroska
Format version : Version 2
File size : 782 MiB
Duration : 1h 33mn
Overall bit rate : 1 171 Kbps
Movie name : Werewolf The Beast Among Us (2012).Unrated.720p.x264.[Dual Audio] [Hindi+English].by K@rtik [ExD Exclusive]
Encoded date : UTC 2012-10-26 13:28:31


[font="Book Antiqua">Video[/font]

Codec ID : V_MPEG4/ISO/AVC
Duration : 1h 33mn
Bit rate : 916 Kbps
Width : 1 280 pixels
Height : 720 pixels
Display aspect ratio : 16:9
Frame rate mode : Constant
Frame rate : 23.976 fps
Color space : YUV
Chroma subsampling : 4:2:0
Bit depth : 8 bits
Scan type : Progressive
Bits/(Pixel*Frame) : 0.041
Stream size : 596 MiB (76%)
Writing library : x264 core 125 r2200 999b753


[font="Book Antiqua">Audio 1[/font]

Codec ID : A_AC3
Duration : 1h 33mn
Bit rate mode : Constant
Bit rate : 128 Kbps
Channel(s) : 6 channels
Channel positions : Front: L C R, Side: L R, LFE
Sampling rate : 48.0 KHz
Bit depth : 16 bits
Compression mode : Lossy
Stream size : 85.5 MiB (11%)
Title : K@rtik
Language : English


[font="Book Antiqua">Audio 2[/font]

Codec ID : A_AC3
Duration : 1h 33mn
Bit rate mode : Constant
Bit rate : 128 Kbps
Channel(s) : 2 channels
Channel positions : Front: L R
Sampling rate : 44.1 KHz
Bit depth : 16 bits
Compression mode : Lossy
Delay relative to video : 500ms
Stream size : 85.5 MiB (11%)
Title : K@rtik
Language : Hindi


image


[font="Book Antiqua">==Team EXD Exclusive==[/font]


[font="Book Antiqua">Original Audio[/font]

[font="Book Antiqua">==First On Net==[/font]

[font="Book Antiqua">Sample In Torrent[/font]


image
image
image


Related Torrents

torrent name size files age seed leech

Sharing Widget


Download torrent
798.88 MB
seeders:1
leechers:2
Werewolf The Beast Among Us (2012).Unrated.720p.[Dual Audio] [Hindi+English].by K@rtik [ExD Exclusive]

Trackers

tracker name Status checked seeders leechers downloads
udp://tracker.publicbt.com:80/announce
active 19 Jul 2014 1 1 10
udp://tracker.openbittorrent.com:80/announce
active 19 Jul 2014 1 2 10
udp://tracker.istole.it:80/announce
active 19 Jul 2014 1 2 10
udp://tracker.1337x.org:80/announce
outdated 25 Aug 2013 - - -
http://exodus.desync.com:6969/announce
blocked 25 Aug 2013 - - -
udp://fr33domtracker.h33t.com:3310/announce
deleted 25 Aug 2013 - - -
http://fr33dom.h33t.com:3310/announce
deleted 25 Aug 2013 - - -
ĀµTorrent compatible trackers list

Locations

name
KickassTorrents
Torrent hash: FD79D83E77D958845D0BD7162E40742A247C6C6F

All Comments

audio
8/10
video
8/10
please, leave only comments related to that torrent
or sign-in
0
TaNaMoRiN30 • 15 March 2014, 23:13
torrent downloaded
Show comment
audio: 7video: 7
Video Has Watermark!! Hindi default Audio / Low English Audio.
0
MatSedot843 • 02 March 2014, 15:18 Show comment
audio: 10video: 10
All nice Thanks..
0
raorajput284 • 04 January 2014, 09:04
torrent downloaded
Show comment
MAIN FILE DOES NOT EXIST DONT DOWNLOAD... . Fuk thz movie 2Days dwnloading..huffyhuffyhuffyhuffyhuffyhuffyhuffyhuffyhuffy
0
SoulAssassin6109 • 06 November 2013, 17:31
torrent downloaded
Show comment
audio: 8video: 8
Thanks
0
anonymous • 30 October 2013, 00:08 Show comment
If you enjoyed this, please thank the people who paid for and made this movie by Liking it on Facebook and rating it on Imdb. Thanks.
0
pdrwindows264 • 15 March 2013, 20:32
torrent downloaded
Show comment
audio: 10video: 10
100% great rip 10/10/a/v
0
Ghalen113 • 24 November 2012, 00:05
torrent downloaded
Show comment
audio: 9video: 9
Great Copy, but not NMT(Network Media Tank) compatible.
0
sliver_ghost1177 • 21 November 2012, 11:59
torrent downloaded
Show comment
audio: 10video: 10
Thanks
0
nicusGT357 • 16 November 2012, 16:18
torrent downloaded
Show comment
audio: 8video: 8
Great stuff.
0
landamiaw2563 • 15 November 2012, 05:08
torrent downloaded
Show comment
audio: 9video: 9
thanks
Show More

User Opinions

q8djent5027, ranasalman0073674, huntinglee802, Jason86342, badzhawk209, moviemuncher197, prashant.gajjar176, cridas95, delfim_mendes_silva34, arorao0 ... And 113 more
angger3601, Ulaan1449, godsend991390, showthefoe474, noxhalo433, ahsaan311, mahe121082305, Alfredo1808286, baldnsexii121, sunnyguypk70 ... And 4 more
Report a bug