Warriors of the Rainbow: Seediq Bale (Part 1 and Part 2) (2011) [BluRay.720p.x264.DTS][MultiSub]

seeders: 0
leechers: 0
Added on Mar 24, 2013 by Evil.Inside11.93K in Movies > Highres Movies
Torrent verified. Downloaded 10 times.

Summary:
No summary yet
Available in versions: 1080p720pBDRipHDRiPDVDDVDRipMPEG-4
Warriors of the Rainbow: Seediq Bale (Part 1 and Part 2) (2011) [BluRay.720p.x264.DTS][MultiSub] (Size: 14.54 GB)
  Subtitles,Screen
  Warriors of the Rainbow Seediq Bale Part 1 2011 720p.BluRay.DTS.mkv 7.62 GB
  Warriors of the Rainbow Seediq Bale Part 2 2011 720.BluRay.DTS.mkv 6.91 GB

Description

image

Info: http://www.imdb.com/title/tt2007993/

Gatunek: Akcja,Dramat historyczny
Produkcja: Tajwan
Premiera: 1 września 2011 (świat)
Reżyseria: Te-Sheng Wei
Scenariusz: Te-Sheng Wei

Tajwan pod rządami Japonii. Ludzie z plemienia Seediq zostali zmuszeni do porzucenia swej odrębności kulturowej. Zakaz, który jest dla nich najbardziej kontrowersyjny dotyczy tatuowania twarzy. Wierzą oni bowiem, że dopiero taki tatuaż pozwala im stać się "prawdziwym człowiekiem".

Obsada:

Lin Ching-Tai ... Mona Rudao
Umin Boya ... Temu Walis
Masanobu Ando ... Genji Kojima
Sabu Kawahara ... Yahiko Kamada
Vivian Hsu ... Obing Tadao
Lo Mei-Ling ... Obing Nawi
Landy Wen ... Mahung Mona
Da-Ching ... Młody Mona Rudao

Dane techniczne:

Audio: (Aboriginal) Japanese| DTS|48 kHz/24-bit|3/2 (L,C,R,l,r) + LFE ch|~1536 kbps avg
Subtitles Muxed:(SRT) Polish,Russian,English,Arabic,Bulgarian,Chinese,Greek,Indonesian,Vietnamese

Format : Matroska
Format version : Version 4 / Version 2
File size : 7.62 GiB
Duration : 2h 23mn
Overall bit rate : 7 587 Kbps
Encoded date : UTC 2013-03-24 09:14:56
Writing application : mkvmerge v6.1.0 ('Old Devil')
Writing library : libebml v1.3.0 + libmatroska v1.4.0
Video #1
ID : 1
Format : AVC
Format/Info : Advanced Video Codec
Format profile : High@L4.1
Format settings, CABAC : Yes
Format settings, ReFrames : 8 frames
Codec ID : V_MPEG4/ISO/AVC
Duration : 2h 23mn
Bit rate : 5 927 Kbps
Width : 1 280 pixels
Height : 548 pixels
Display aspect ratio : 2.35:1
Frame rate mode : Constant
Frame rate : 23.976 fps
Color space : YUV
Chroma subsampling : 4:2:0
Bit depth : 8 bits
Scan type : Progressive
Bits/(Pixel*Frame) : 0.352
Stream size : 5.95 GiB (78%)
Title : Warriors of the Rainbow Seediq Bale 2011 Part 1
Writing library : x264
Default : Yes
Forced : No
Matrix coefficients : BT.709
Audio #2
ID : 2
Format : DTS
Format/Info : Digital Theater Systems
Mode : 16
Format settings, Endianness : Big
Codec ID : A_DTS
Duration : 2h 23mn
Bit rate mode : Constant
Bit rate : 1 509 Kbps
Channel(s) : 6 channels
Channel positions : Front: L C R, Side: L R, LFE
Sampling rate : 48.0 KHz
Bit depth : 24 bits
Compression mode : Lossy
Stream size : 1.51 GiB (20%)
Title : DTS 5.1 @ 1536 kbps - Aboriginal
Language : Japanese
Default : Yes
Forced : No
Text #3
ID : 3
Format : UTF-8
Codec ID : S_TEXT/UTF8
Codec ID/Info : UTF-8 Plain Text
Language : Polish
Default : Yes
Forced : No
Text #4
ID : 4
Format : UTF-8
Codec ID : S_TEXT/UTF8
Codec ID/Info : UTF-8 Plain Text
Language : Russian
Default : No
Forced : No
Text #5
ID : 5
Format : UTF-8
Codec ID : S_TEXT/UTF8
Codec ID/Info : UTF-8 Plain Text
Language : English
Default : No
Forced : No
Text #6
ID : 6
Format : UTF-8
Codec ID : S_TEXT/UTF8
Codec ID/Info : UTF-8 Plain Text
Language : Arabic
Default : No
Forced : No
Text #7
ID : 7
Format : UTF-8
Codec ID : S_TEXT/UTF8
Codec ID/Info : UTF-8 Plain Text
Language : Bulgarian
Default : No
Forced : No
Text #8
ID : 8
Format : UTF-8
Codec ID : S_TEXT/UTF8
Codec ID/Info : UTF-8 Plain Text
Language : Chinese
Default : No
Forced : No
Text #9
ID : 9
Format : UTF-8
Codec ID : S_TEXT/UTF8
Codec ID/Info : UTF-8 Plain Text
Language : Greek
Default : No
Forced : No
Text #10
ID : 10
Format : UTF-8
Codec ID : S_TEXT/UTF8
Codec ID/Info : UTF-8 Plain Text
Language : Indonesian
Default : No
Forced : No
Text #11
ID : 11
Format : UTF-8
Codec ID : S_TEXT/UTF8
Codec ID/Info : UTF-8 Plain Text
Language : Vietnamese
Default : No
Forced : No

Related Torrents

torrent name size files age seed leech

Sharing Widget


Download torrent
14.54 GB
seeders:0
leechers:0
Warriors of the Rainbow: Seediq Bale (Part 1 and Part 2) (2011) [BluRay.720p.x264.DTS][MultiSub]

Trackers

tracker name Status checked seeders leechers downloads
udp://tracker.openbittorrent.com:80/announce
active 05 Oct 2014 0 0 0
udp://tracker.istole.it:80/announce
active 05 Oct 2014 0 0 0
udp://tracker.publicbt.com:80/announce
active 05 Oct 2014 0 0 10
http://fr33dom.h33t.com:3310/announce
deleted 20 May 2013 - - -
http://www.h33t.com:3310/announce
deleted 25 Mar 2013 - - -
udp://fr33dom.h33t.com:3310/announce
deleted 25 Mar 2013 - - -
udp://fr33domtracker.h33t.com:3310/announce
deleted 25 Mar 2013 - - -
µTorrent compatible trackers list

Locations

name
KickassTorrents
Torrent hash: 228E3475A485E8AE99F49D48D564D4D2366C960F

All Comments

audio
0/10
video
0/10
please, leave only comments related to that torrent
or sign-in
0
anonymous • 19 August 2013, 12:29 Show comment
english substitle?

User Opinions


atlan648771, serzt216
Report a bug