Warrior 2011 TS XviD - VISUALiSE

seeders: 1
leechers: 0
Added on Nov 18, 2011 by hail_alpha66.25K in Movies
Torrent verified. Downloaded 36 times.

Warrior 2011 TS XviD - VISUALiSE (Size: 1.46 GB)
  HDSceneRG.txt 115 bytes
  Torrent downloaded from Demonoid.me.txt 46 bytes
  Torrent downloaded from Suprnova.me.txt 42 bytes
  Warrior 2011 TS XviD - VISUALiSE.avi 1.46 GB
  Warrior 2011 TS XviD - VISUALiSE.nfo 3.87 KB
  att-networks.com.txt 39 bytes
  Sceneunderground.org.txt 77 bytes

Description

image

Title: Warrior 2011 TS XviD - VISUALiSE
Format: Xvid
Language: English
Subtitles: No
Imdb: http://www.imdb.com/title/tt1291584/

Plot:
The youngest son (Hardy) of an alcoholic former boxer (Nolte) 
returns home, where he's trained by his father for competition 
in a mixed martial arts tournament.. 

Sources:
Video: TNZ 720Files - Many Thanks 
Audio: Warrior (2011) TS XVID - reCodeM8-KinG RG - Many Thanks 

Release Notes:
VISUALiSE Bringing you 
Warrior 2011 TS XviD - VISUALiSE
video was from the TNZ 720 from which we got from TNZ thanks guys 
we ran sum filters added some sharpen and played with the sats a bit
audio is from the Warrior (2011) TS XVID - reCodeM8-KinG RG thanx guys 
release lurking the internet which which is nice line to complete the 
release we muxed this onto our encode and done sum final touches to 
get this looking nice 


enjoy. 

Info:

Video
ID : 0
Format : MPEG-4 Visual
Format profile : Advanced Simple@L5
Format settings, BVOP : 2
Format settings, QPel : No
Format settings, GMC : No warppoints
Format settings, Matrix : Default (H.263)
Codec ID : XVID
Codec ID/Hint : XviD
Duration : 2h 7mn
Bit rate : 1 497 Kbps
Width : 720 pixels
Height : 288 pixels
Display aspect ratio : 2.500
Frame rate : 25.000 fps
Color space : YUV
Chroma subsampling : 4:2:0
Bit depth : 8 bits
Scan type : Progressive
Compression mode : Lossy
Bits/(Pixel*Frame) : 0.289
Stream size : 1.33 GiB (92%)

Audio
ID : 1
Format : MPEG Audio
Format version : Version 1
Format profile : Layer 3
Mode : Joint stereo
Mode extension : MS Stereo
Codec ID : 55
Codec ID/Hint : MP3
Duration : 2h 7mn
Bit rate mode : Constant
Bit rate : 128 Kbps
Channel(s) : 2 channels
Sampling rate : 44.1 KHz
Compression mode : Lossy
Stream size : 117 MiB (8%)
Alignment : Aligned on interleaves
Interleave, duration : 40 ms (1.00 video frame)
Writing library : LAME3.98r
Encoding settings : -m j -V 4 -q 2 -lowpass 17 -b 128


Screens:
image
image
image
image
image
image

Related Torrents

torrent name size files age seed leech

Sharing Widget


Download torrent
1.46 GB
seeders:1
leechers:0
Warrior 2011 TS XviD - VISUALiSE

Trackers

tracker name Status checked seeders leechers downloads
http://tracker.torrentbay.to:6969/announce
outdated 02 Dec 2012 - - -
http://secure.pow7.com/announce
outdated 09 May 2012 - - -
http://cpleft.com:2710/announce
outdated 18 Nov 2011 - - -
udp://tracker.1337x.org:80/announce
outdated 18 Nov 2011 - - -
http://announce.torrentsmd.com:6969/announce
outdated 18 Nov 2011 - - -
http://inferno.demonoid.me:3410/announce
outdated 18 Nov 2011 - - -
udp://tracker.publicbt.com:80/announce
outdated 18 Nov 2011 - - -
udp://tracker.openbittorrent.com:80/announce
outdated 18 Nov 2011 - - -
http://tracker.openbittorrent.com/announce
outdated 18 Nov 2011 - - -
http://exodus.desync.com/announce
blocked 23 Aug 2012 - - -
http://exodus.desync.com:6969/announce
blocked 23 Aug 2012 - - -
http://fr33dom.h33t.com:3310/announce
deleted 20 May 2013 - - -
http://tracker.publicbt.com/announce
deleted 11 Mar 2013 - - -
http://tracker.novalayer.org:6969/announce
pending 18 Nov 2011 0 3 0
µTorrent compatible trackers list

Locations

name
KickassTorrents
ThePirateBay
ExtraTorrent
Torrent hash: 234E6EBC47F26B9A1B05D0D2EC4914DCE0E123C3

All Comments

audio
6/10
video
6/10
please, leave only comments related to that torrent
or sign-in
0
anonymous • 19 November 2011, 07:57 Show comment
audio: 6video: 6
pretty good copy

User Opinions

Report a bug